<?xml version="1.0" standalone="no"?>
<!DOCTYPE svg PUBLIC "-//W3C//DTD SVG 1.1//EN" "http://www.w3.org/Graphics/SVG/1.1/DTD/svg11.dtd" >
<svg xmlns="http://www.w3.org/2000/svg" xmlns:xlink="http://www.w3.org/1999/xlink" version="1.1">
<metadata>
Created by FontForge 20170731 at Mon Mar 14 11:36:09 2022
 By Aleksey,,,
Copyright (c) 2008 by Jos Buivenga. All rights reserved.
</metadata>
<defs>
<font id="MuseoSans-100" horiz-adv-x="770" >
  <font-face 
    font-family="Museo Sans 100"
    font-weight="250"
    font-stretch="normal"
    units-per-em="2048"
    panose-1="2 0 0 0 0 0 0 0 0 0"
    ascent="1536"
    descent="-512"
    x-height="1024"
    cap-height="1434"
    bbox="-236 -430 2228 1790"
    underline-thickness="102"
    underline-position="-307"
    unicode-range="U+0020-FB04"
  />
<missing-glyph horiz-adv-x="1044" 
d="M10 0v1434h1024v-1434h-1024zM522 809l348 522h-696zM584 717l348 -522v1044zM113 195l348 522l-348 522v-1044zM174 102h696l-348 523z" />
    <glyph glyph-name="f_f" unicode="ff" horiz-adv-x="1249" 
d="M848 0v946h-539v-946h-86v946h-129v78h129v41q0 96 24.5 168.5t59.5 111.5t82.5 62.5t84 30t73.5 6.5l53 -4v-80q-18 4 -47 4t-57 -5t-63.5 -24t-61.5 -49.5t-44 -87t-18 -131.5v-43h539v41q0 96 24.5 168.5t59 111.5t82 62.5t84 30t73.5 6.5l54 -4v-80q-18 4 -47 4
t-57 -5t-63.5 -24t-61.5 -49.5t-44 -87t-18 -131.5v-43h280v-78h-280v-946h-86z" />
    <glyph glyph-name="fi" unicode="fi" horiz-adv-x="1071" 
d="M805 0v946h-496v-946h-86v946h-129v78h129v41q0 96 24.5 168.5t59.5 111.5t82.5 62.5t84 30t73.5 6.5l53 -4v-80q-18 4 -47 4t-57 -5t-63.5 -24t-61.5 -49.5t-44 -87t-18 -131.5v-43h582v-1024h-86zM797 1284v150h102v-150h-102z" />
    <glyph glyph-name="fl" unicode="fl" horiz-adv-x="1095" 
d="M223 0v940h-129v78h129v47q0 96 24.5 168.5t59.5 111.5t82.5 62.5t84 30t73.5 6.5l53 -4v-80q-18 4 -47 4t-57 -5t-63.5 -24t-61.5 -49.5t-44 -87t-18 -131.5v-49h281v-78h-281v-940h-86zM795 207v1227h86v-1201q0 -159 120 -159l31 2v-80q-19 -4 -37 -4q-22 0 -44 3.5
t-51.5 17t-51.5 35.5t-37.5 63t-15.5 96z" />
    <glyph glyph-name="f_f_i" unicode="ffi" horiz-adv-x="1695" 
d="M1430 0v946h-496v-946h-86v946h-539v-946h-86v946h-129v78h129v41q0 96 24.5 168.5t59.5 111.5t82.5 62.5t84 30t73.5 6.5l53 -4v-80q-18 4 -47 4t-57 -5t-63.5 -24t-61.5 -49.5t-44 -87t-18 -131.5v-43h539v41q0 96 24.5 168.5t59 111.5t82 62.5t84 30t73.5 6.5l54 -4
v-80q-18 4 -47 4t-57 -5t-63.5 -24t-61.5 -49.5t-44 -87t-18 -131.5v-43h582v-1024h-86zM1421 1284v150h103v-150h-103z" />
    <glyph glyph-name="f_f_l" unicode="ffl" horiz-adv-x="1720" 
d="M848 0v946h-539v-946h-86v946h-129v78h129v41q0 96 24.5 168.5t59.5 111.5t82.5 62.5t84 30t73.5 6.5l53 -4v-80q-18 4 -47 4t-57 -5t-63.5 -24t-61.5 -49.5t-44 -87t-18 -131.5v-43h539v41q0 96 24.5 168.5t59 111.5t82 62.5t84 30t73.5 6.5l54 -4v-80q-18 4 -47 4
t-57 -5t-63.5 -24t-61.5 -49.5t-44 -87t-18 -131.5v-43h280v-78h-280v-946h-86zM1419 207v1227h86v-1201q0 -159 121 -159l31 2v-80q-19 -4 -37 -4q-22 0 -44 3.5t-52 17t-52 35.5t-37.5 63t-15.5 96z" />
    <glyph glyph-name="f_j" unicode="fj" horiz-adv-x="1071" 
d="M223 0v946h-129v78h129v41q0 96 24.5 168.5t59.5 111.5t82.5 62.5t84 30t73.5 6.5l53 -4v-80q-18 4 -47 4t-57 -5t-63.5 -24t-61.5 -49.5t-44 -87t-18 -131.5v-43h582v-1065q0 -97 -24.5 -169.5t-59.5 -111t-83 -62t-84.5 -30t-74.5 -6.5l-51 4v80q18 -4 45 -4q30 0 58 5
t63.5 24t62 49.5t44.5 87t18 131.5v989h-496v-946h-86zM797 1284v150h102v-150h-102z" />
    <glyph glyph-name=".notdef" horiz-adv-x="1044" 
d="M10 0v1434h1024v-1434h-1024zM522 809l348 522h-696zM584 717l348 -522v1044zM113 195l348 522l-348 522v-1044zM174 102h696l-348 523z" />
    <glyph glyph-name=".null" horiz-adv-x="0" 
 />
    <glyph glyph-name="nonmarkingreturn" horiz-adv-x="682" 
 />
    <glyph glyph-name="space" unicode=" " horiz-adv-x="567" 
 />
    <glyph glyph-name="exclam" unicode="!" horiz-adv-x="604" 
d="M258 358v1076h88v-1076h-88zM244 0v125h121v-125h-121z" />
    <glyph glyph-name="quotedbl" unicode="&#x22;" horiz-adv-x="595" 
d="M360 1143v309h89v-309h-89zM147 1143v309h89v-309h-89z" />
    <glyph glyph-name="numbersign" unicode="#" horiz-adv-x="1501" 
d="M346 0l72 408h-312l15 81h311l80 453h-311l14 82h311l72 410h88l-72 -410h387l72 410h88l-71 -410h305l-15 -82h-305l-80 -453h305l-14 -81h-305l-72 -408h-88l72 408h-387l-72 -408h-88zM520 489h387l80 453h-387z" />
    <glyph glyph-name="dollar" unicode="$" horiz-adv-x="1122" 
d="M135 154l60 67q6 -7 17 -17.5t49 -38t79.5 -48.5t106 -38.5t131.5 -17.5q136 0 227.5 78t91.5 205q0 80 -41 142.5t-106 102.5t-143.5 75.5t-157.5 72t-144 80.5t-106 112.5t-41 157.5q0 136 103 242.5t269 124.5v195h88v-193q60 -2 116.5 -16.5t94.5 -33.5t67 -37.5
t42 -30.5l14 -13l-49 -76q-5 5 -14.5 13.5t-41 29.5t-65.5 37t-86.5 29.5t-105.5 13.5q-152 0 -246 -85.5t-94 -196.5q0 -75 41 -132t106 -95t143.5 -71.5t157.5 -71.5t144 -84t106 -119.5t41 -168.5q0 -149 -101 -253.5t-270 -117.5v-190h-88v190q-72 4 -139 24
t-111.5 45.5t-78.5 50t-50 41.5z" />
    <glyph glyph-name="percent" unicode="%" horiz-adv-x="1437" 
d="M395 924q-110 0 -188 78t-78 188t78 189t188 79t189.5 -79t79.5 -189t-79 -188t-190 -78zM125 0l1087 1434h107l-1088 -1434h-106zM395 1006q76 0 128 53.5t52 130.5t-52 131.5t-128 54.5t-127 -54.5t-51 -131.5t51 -130.5t127 -53.5zM776 242q0 110 78 189t188 79
t189.5 -79t79.5 -189t-79.5 -188.5t-189.5 -78.5t-188 78.5t-78 188.5zM864 242q0 -77 51 -131t127 -54t128.5 54t52.5 131t-52.5 131.5t-128.5 54.5t-127 -54.5t-51 -131.5z" />
    <glyph glyph-name="ampersand" unicode="&#x26;" horiz-adv-x="1363" 
d="M133 391q0 132 71.5 241t198.5 144v4q-8 2 -22 8t-49.5 30.5t-62.5 57t-49.5 93t-22.5 133.5q0 158 111 257t306 99q27 0 65 -5t63 -10l24 -5l-29 -78q-76 16 -129 16q-138 0 -228.5 -74.5t-90.5 -197.5q0 -36 6 -69.5t28 -75.5t58 -72t102.5 -51t155.5 -21h334v209h88
v-209h199v-82h-199v-229q0 -265 -122.5 -397t-334.5 -132q-206 0 -338.5 118t-132.5 298zM225 395q0 -143 102 -238.5t277 -95.5q174 0 271.5 106t97.5 337v229h-330q-208 0 -313 -91t-105 -247z" />
    <glyph glyph-name="quotesingle" unicode="'" horiz-adv-x="382" 
d="M147 1143v309h89v-309h-89z" />
    <glyph glyph-name="parenleft" unicode="(" horiz-adv-x="567" 
d="M395 -195q-106 186 -165.5 415.5t-59.5 465.5q0 425 225 799h90q-231 -390 -231 -801q0 -476 231 -879h-90z" />
    <glyph glyph-name="parenright" unicode=")" horiz-adv-x="567" 
d="M172 -195h-90q231 403 231 879q0 411 -231 801h90q225 -374 225 -799q0 -236 -59.5 -465.5t-165.5 -415.5z" />
    <glyph glyph-name="asterisk" unicode="*" horiz-adv-x="962" 
d="M289 705l-74 51l203 266v4l-320 96l27 86l317 -110l-10 336h96l-10 -336l320 108l28 -84l-321 -96v-4l200 -266l-71 -54l-191 275h-4z" />
    <glyph glyph-name="plus" unicode="+" horiz-adv-x="1404" 
d="M174 539v82h485v538h89v-538h483v-82h-483v-539h-89v539h-485z" />
    <glyph glyph-name="comma" unicode="," horiz-adv-x="493" 
d="M92 -193l109 318h114l-137 -318h-86z" />
    <glyph glyph-name="hyphen" unicode="-" horiz-adv-x="729" 
d="M82 539v82h565v-82h-565z" />
    <glyph glyph-name="period" unicode="." horiz-adv-x="485" 
d="M180 0v129h125v-129h-125z" />
    <glyph glyph-name="slash" unicode="/" horiz-adv-x="786" 
d="M96 -86l518 1602h91l-519 -1602h-90z" />
    <glyph glyph-name="zero" unicode="0" horiz-adv-x="1273" 
d="M637 -25q-107 0 -190 37.5t-138 103t-90 161t-50 203.5t-15 237t15 236.5t50 202.5t90 160.5t138 103.5t190 38t190 -38t138 -103.5t90 -160.5t50 -202.5t15 -236.5t-15 -237t-50 -203.5t-90 -161t-138 -103t-190 -37.5zM637 61q111 0 189 49t121 141t62 205.5t19 260.5
q0 116 -11 210.5t-39 179t-71.5 142t-112 90.5t-157.5 33t-157.5 -33t-112 -90.5t-71.5 -142t-39 -179t-11 -210.5q0 -147 19 -260.5t62 -205.5t121 -141t189 -49z" />
    <glyph glyph-name="one" unicode="1" horiz-adv-x="905" 
d="M115 0v82h325v1167l2 72h-4q-15 -27 -76 -88l-169 -170l-62 59l309 312h88v-1352h318v-82h-731z" />
    <glyph glyph-name="two" unicode="2" horiz-adv-x="1140" 
d="M135 0q-6 40 -6 76q0 80 26 150.5t70.5 125.5t101.5 105t120.5 94t127 86.5t120.5 89t101.5 95.5t70.5 111.5t26 131.5q0 132 -91 219.5t-243 87.5q-64 0 -123.5 -21t-98.5 -51t-69 -60.5t-44 -51.5l-13 -21l-66 45q5 10 15.5 26.5t48.5 59t82 75t117 59t153 26.5
q103 0 185 -32.5t133.5 -87.5t78.5 -125t27 -148t-26 -148t-70 -124t-101.5 -104t-120.5 -93.5t-126 -86.5t-120.5 -89t-101.5 -95.5t-70 -111.5t-26 -131h785v-82h-873z" />
    <glyph glyph-name="three" unicode="3" horiz-adv-x="1138" 
d="M100 174l66 66q6 -7 17.5 -19t50 -43t80 -54.5t106.5 -43t131 -19.5q142 0 250 100t108 253q0 107 -56 186.5t-141.5 117.5t-185.5 38h-98l-25 61l402 469q14 16 29.5 32.5t24.5 25.5l9 8v4q-38 -4 -110 -4h-588v82h821v-62l-463 -534q57 0 116 -11t124.5 -41.5t116 -76
t83.5 -122t33 -173.5q0 -183 -133.5 -311t-320.5 -128q-76 0 -150 20.5t-125.5 49.5t-92 58.5t-59.5 50.5z" />
    <glyph glyph-name="four" unicode="4" horiz-adv-x="1204" 
d="M74 410v61l743 963h82v-942h213v-82h-213v-410h-88v410h-737zM197 492h614v671l6 129h-4q-35 -51 -72 -98l-544 -698v-4z" />
    <glyph glyph-name="five" unicode="5" horiz-adv-x="1134" 
d="M121 182l72 56q4 -7 12 -19t37.5 -42.5t64.5 -54t93.5 -42.5t123.5 -19q168 0 283 107.5t115 267.5q0 162 -115 270.5t-283 108.5q-73 0 -142.5 -21.5t-102.5 -43.5l-33 -21l-66 23l82 682h666v-82h-588l-51 -428l-15 -88h5q11 7 31.5 18t85 29t128.5 18
q205 0 347.5 -135.5t142.5 -329.5q0 -127 -66 -233t-178.5 -167t-245.5 -61q-78 0 -148.5 21.5t-115 52t-77.5 60.5t-47 51z" />
    <glyph glyph-name="six" unicode="6" horiz-adv-x="1212" 
d="M647 -25q-154 0 -269.5 91.5t-174 242.5t-58.5 336q0 109 21 219t69.5 218t118 191t175.5 134t233 51q65 0 127.5 -14t92.5 -28l30 -15l-43 -80q-10 6 -28 14.5t-73 22.5t-110 14q-97 0 -180 -38.5t-142 -102.5t-102.5 -150t-66.5 -178.5t-29 -189.5h4q60 90 169.5 143
t235.5 53q192 0 316 -125t124 -331q0 -113 -35.5 -205t-96 -151t-140 -90.5t-168.5 -31.5zM645 61q163 0 256.5 109t93.5 283q0 170 -97.5 270t-254.5 100q-159 0 -278 -91t-119 -193q0 -60 17.5 -126t53 -128.5t82.5 -112.5t111.5 -80.5t134.5 -30.5z" />
    <glyph glyph-name="seven" unicode="7" horiz-adv-x="1038" 
d="M215 0l598 1219q16 32 35 65t30 50l11 18v4q-41 -4 -113 -4h-696v82h907v-62l-680 -1372h-92z" />
    <glyph glyph-name="eight" unicode="8" horiz-adv-x="1230" 
d="M141 410q0 73 26.5 142t64 114.5t75 80.5t63.5 51l27 17q-186 113 -186 293q0 69 27.5 131t78.5 111.5t133 78.5t183 29q197 0 311.5 -100t114.5 -262q0 -62 -20 -126.5t-42.5 -107t-57.5 -88t-46 -57t-27 -27.5q101 -56 156 -129t55 -178q0 -169 -134 -288.5
t-327 -119.5q-91 0 -175 29t-151.5 82t-108 137.5t-40.5 186.5zM985 381q0 52 -23 96.5t-56.5 75t-90 62t-103.5 52t-117.5 50.5t-113.5 51q-15 -7 -37.5 -21.5t-61.5 -48t-70.5 -72t-55 -96.5t-23.5 -120q0 -105 56 -186.5t142.5 -122t184.5 -40.5q92 0 176 40t138.5 114.5
t54.5 165.5zM303 1108q0 -44 14.5 -82t43.5 -68.5t61.5 -54.5t81.5 -48t88 -41t97 -41.5t95 -41.5q20 19 41 42t58 73.5t60.5 116t23.5 133.5q0 126 -93 201t-241 75q-151 0 -240.5 -75.5t-89.5 -188.5z" />
    <glyph glyph-name="nine" unicode="9" horiz-adv-x="1212" 
d="M451 -25q-65 0 -127.5 14.5t-92.5 28.5l-30 15l43 80q10 -6 28 -14.5t73 -23t110 -14.5q97 0 180 38.5t142 103t102.5 150.5t66.5 178.5t29 189.5h-4q-60 -91 -170 -144t-236 -53q-192 0 -316 125.5t-124 331.5q0 113 35.5 205t96 150.5t140 90t168.5 31.5
q154 0 269.5 -91.5t174 -242.5t58.5 -336q0 -90 -15.5 -182t-46 -184t-81.5 -172t-116.5 -142t-157.5 -97.5t-199 -35.5zM569 610q106 0 199.5 44.5t146 110t52.5 130.5q0 76 -29 159t-79 154t-127.5 117.5t-164.5 46.5q-163 0 -256.5 -108.5t-93.5 -282.5
q0 -170 97.5 -270.5t254.5 -100.5z" />
    <glyph glyph-name="colon" unicode=":" horiz-adv-x="600" 
d="M242 903v121h116v-121h-116zM242 0v121h116v-121h-116z" />
    <glyph glyph-name="semicolon" unicode=";" horiz-adv-x="600" 
d="M248 903v121h117v-121h-117zM156 -193l92 318h106l-114 -318h-84z" />
    <glyph glyph-name="less" unicode="&#x3c;" horiz-adv-x="1153" 
d="M111 543v73l899 404v-98l-772 -340v-4l772 -340v-99z" />
    <glyph glyph-name="equal" unicode="=" horiz-adv-x="1441" 
d="M254 702v82h934v-82h-934zM254 375v82h934v-82h-934z" />
    <glyph glyph-name="greater" unicode="&#x3e;" horiz-adv-x="1153" 
d="M143 139v99l772 340v4l-772 340v98l899 -404v-73z" />
    <glyph glyph-name="question" unicode="?" horiz-adv-x="960" 
d="M332 358v91q0 68 20 126t52.5 100t71.5 80.5t78 75t71.5 75t52.5 90.5t20 112q0 112 -83.5 188t-215.5 76q-67 0 -132 -21.5t-97 -42.5l-31 -22l-47 70q5 4 14 11t40 24.5t64.5 31t84 24.5t102.5 11q175 0 284.5 -99.5t109.5 -252.5q0 -69 -20.5 -127.5t-53 -100.5
t-72 -80.5t-79.5 -74.5t-72.5 -74.5t-53 -89.5t-20.5 -110v-91h-88zM315 0v125h121v-125h-121z" />
    <glyph glyph-name="at" unicode="@" horiz-adv-x="1613" 
d="M143 498q0 152 57 290.5t152 238.5t226 159t274 59q127 0 222 -30.5t148.5 -83t79 -114.5t25.5 -134v-705h143v-82h-542q-164 0 -280 117t-116 281q0 165 116 283t280 118h307q-2 54 -23 100t-63 85t-115 61t-170 22q-174 0 -318.5 -89t-227 -241.5t-82.5 -334.5
q0 -183 82.5 -335t227 -239.5t318.5 -87.5v-86q-196 0 -362 99.5t-262.5 271.5t-96.5 377zM625 494q0 -131 91.5 -223.5t221.5 -92.5h297v635h-293q-133 0 -225 -94t-92 -225z" />
    <glyph glyph-name="A" unicode="A" horiz-adv-x="1241" 
d="M1110 0l-186 496h-609l-184 -496h-94l536 1434h95l536 -1434h-94zM623 1331h-5q-30 -111 -53 -172l-219 -581h547l-217 581q-10 27 -23.5 70t-21.5 73z" />
    <glyph glyph-name="B" unicode="B" horiz-adv-x="1267" 
d="M221 0v1434h481q159 0 261 -98.5t102 -260.5q0 -113 -49.5 -192.5t-136.5 -120.5v-4q108 -30 175.5 -128.5t67.5 -234.5q0 -178 -112.5 -286.5t-286.5 -108.5h-502zM309 795h391q121 0 197 77t76 203t-74.5 201.5t-200.5 75.5h-389v-557zM309 82h406q145 0 230 83.5
t85 229.5q0 144 -88.5 231t-228.5 87h-404v-631z" />
    <glyph glyph-name="C" unicode="C" horiz-adv-x="1503" 
d="M125 727q0 205 93 372.5t256 263t362 95.5q95 0 183 -18.5t145 -45t100.5 -53t63.5 -45.5l20 -18l-54 -66q-7 7 -20 17.5t-57.5 38.5t-94 49.5t-127 39t-157.5 17.5q-130 0 -245 -49.5t-197.5 -134.5t-130.5 -205.5t-48 -257.5q0 -184 81 -337t225 -242t321 -89
q86 0 167.5 20t136.5 48.5t98 57.5t63 49l20 20l55 -61q-8 -9 -23 -23.5t-67 -52t-110 -66.5t-150.5 -52.5t-189.5 -23.5q-154 0 -288.5 59.5t-228.5 160.5t-148 239.5t-54 292.5z" />
    <glyph glyph-name="D" unicode="D" horiz-adv-x="1517" 
d="M221 0v1434h451q324 0 519 -190.5t195 -526.5q0 -225 -90 -388t-250 -246t-374 -83h-451zM309 82h348q292 0 464.5 166t172.5 469q0 302 -173 468.5t-464 166.5h-348v-1270z" />
    <glyph glyph-name="E" unicode="E" horiz-adv-x="1169" 
d="M221 0v1434h785v-82h-697v-588h572v-82h-572v-600h735v-82h-823z" />
    <glyph glyph-name="F" unicode="F" horiz-adv-x="1040" 
d="M221 0v1434h723v-82h-635v-598h549v-82h-549v-672h-88z" />
    <glyph glyph-name="G" unicode="G" horiz-adv-x="1550" 
d="M125 717q0 204 93.5 374t257.5 268.5t364 98.5q91 0 175.5 -16.5t141 -40.5t99.5 -48t63 -41l20 -16l-53 -67q-7 6 -20 15.5t-57.5 34.5t-93 44.5t-123.5 35t-152 15.5q-177 0 -320 -86.5t-223 -236.5t-80 -334q0 -185 78 -335t218 -236.5t314 -86.5q86 0 168.5 24.5
t138.5 59t99.5 69t64.5 58.5l21 25v276h-256v82h344v-653h-88v125l2 61h-4q-7 -9 -20.5 -23t-60.5 -50.5t-99.5 -64t-136.5 -50.5t-173 -23q-147 0 -277.5 58t-223.5 157t-147 236t-54 291z" />
    <glyph glyph-name="H" unicode="H" horiz-adv-x="1527" 
d="M221 0v1434h88v-674h910v674h88v-1434h-88v678h-910v-678h-88z" />
    <glyph glyph-name="I" unicode="I" horiz-adv-x="530" 
d="M221 0v1434h88v-1434h-88z" />
    <glyph glyph-name="J" unicode="J" horiz-adv-x="1050" 
d="M80 391v45h88v-47q0 -132 57 -215q41 -58 104 -86.5t134 -28.5q56 0 106 17.5t94 54t69.5 103t25.5 155.5v963h-342v82h430v-1043q0 -110 -33 -193.5t-89.5 -130.5t-122 -69.5t-138.5 -22.5t-138.5 22.5t-122 69.5t-89.5 130.5t-33 193.5z" />
    <glyph glyph-name="K" unicode="K" horiz-adv-x="1187" 
d="M221 0v1434h88v-639h266l410 639h107l-441 -676v-4l469 -754h-106l-439 713h-266v-713h-88z" />
    <glyph glyph-name="L" unicode="L" horiz-adv-x="1042" 
d="M221 0v1434h88v-1352h684v-82h-772z" />
    <glyph glyph-name="M" unicode="M" horiz-adv-x="1740" 
d="M180 0l115 1434h86l418 -902l69 -161h4q37 91 70 161l418 902h86l115 -1434h-88l-89 1094q-3 31 -4.5 78.5t-1.5 79.5v32h-4q-41 -120 -74 -190l-385 -818h-90l-383 818q-14 30 -32.5 78.5t-30.5 81.5l-12 34h-5q0 -124 -6 -194l-88 -1094h-88z" />
    <glyph glyph-name="N" unicode="N" horiz-adv-x="1540" 
d="M221 0v1434h82l817 -1125q21 -29 50 -74t48 -75l19 -31h4q-10 108 -10 180v1125h88v-1434h-82l-817 1124q-21 29 -50 74.5t-48 75.5l-19 31h-4q10 -109 10 -181v-1124h-88z" />
    <glyph glyph-name="O" unicode="O" horiz-adv-x="1691" 
d="M121 727q0 152 57.5 288t155 232.5t231.5 153.5t281 57t281 -57t231.5 -153.5t155 -232.5t57.5 -288q0 -155 -57.5 -295t-155 -240t-231.5 -158.5t-281 -58.5t-281 58.5t-231.5 158.5t-155 240t-57.5 295zM213 727q0 -185 85 -339t230 -241.5t318 -87.5t318 87.5
t230 241.5t85 339q0 180 -85 329t-230 233.5t-318 84.5t-318 -84.5t-230 -233.5t-85 -329z" />
    <glyph glyph-name="P" unicode="P" horiz-adv-x="1212" 
d="M221 0v1434h471q191 0 313.5 -113.5t122.5 -304.5q0 -192 -122.5 -307t-313.5 -115h-383v-594h-88zM309 676h379q159 0 253.5 90.5t94.5 249.5t-94.5 247.5t-253.5 88.5h-379v-676z" />
    <glyph glyph-name="Q" unicode="Q" horiz-adv-x="1718" 
d="M123 725q0 152 57 288.5t153.5 233.5t230 154t280.5 57q150 0 285 -57t232.5 -154t154.5 -233.5t57 -288.5q0 -144 -50 -277t-139 -233l185 -190l-58 -56l-182 189q-202 -183 -485 -183q-196 0 -362 100t-262.5 272.5t-96.5 377.5zM215 725q0 -184 83 -337t227.5 -241
t318.5 -88q114 0 228 42t198 118l-185 191l58 55l182 -189q73 89 114.5 206t41.5 243q0 137 -49 257.5t-134 206.5t-203 135.5t-251 49.5q-131 0 -247.5 -49.5t-200 -135.5t-132.5 -206.5t-49 -257.5z" />
    <glyph glyph-name="R" unicode="R" horiz-adv-x="1271" 
d="M221 0v1434h420q173 0 258 -43q92 -46 145.5 -135t53.5 -209q0 -152 -79.5 -260t-207.5 -136v-4q15 -16 33 -51l321 -596h-104l-340 635h-412v-635h-88zM309 717h389q140 0 224 91.5t84 238.5q0 95 -45 168t-123 108q-66 29 -201 29h-328v-635z" />
    <glyph glyph-name="S" unicode="S" horiz-adv-x="1085" 
d="M115 154l59 67q6 -7 17 -17.5t49 -38t79.5 -48.5t106 -38.5t131.5 -17.5q136 0 228 78.5t92 204.5q0 65 -25 118t-67.5 89t-97.5 66.5t-116 56.5t-122 52.5t-116 59.5t-97.5 73t-67.5 98t-25 130q0 149 121 260t309 111q65 0 126.5 -13.5t103 -33t73.5 -39.5t47 -34
l15 -13l-49 -76q-5 5 -14.5 13.5t-41 29.5t-66 37t-87 29.5t-105.5 13.5q-152 0 -245.5 -85.5t-93.5 -196.5q0 -60 25 -109t67.5 -82.5t97.5 -62.5t116 -54t121.5 -52t115.5 -61.5t97.5 -77t67.5 -104.5t25 -139q0 -159 -114 -266t-302 -107q-79 0 -153.5 18.5t-124 44.5
t-87.5 52.5t-56 45.5z" />
    <glyph glyph-name="T" unicode="T" horiz-adv-x="1189" 
d="M551 0v1352h-535v82h1158v-82h-535v-1352h-88z" />
    <glyph glyph-name="U" unicode="U" horiz-adv-x="1472" 
d="M201 492v942h88v-938q0 -202 121 -319.5t325 -117.5t326.5 118.5t122.5 322.5v934h88v-942q0 -234 -148.5 -375.5t-386.5 -141.5t-387 141.5t-149 375.5z" />
    <glyph glyph-name="V" unicode="V" horiz-adv-x="1239" 
d="M571 0l-536 1434h94l432 -1160l55 -172h5q30 104 55 172l434 1160h94l-536 -1434h-97z" />
    <glyph glyph-name="W" unicode="W" horiz-adv-x="1882" 
d="M938 1309h-4q-28 -136 -55 -228l-304 -1081h-110l-377 1434h92l303 -1168l35 -153h4q1 0 6 22t15 61.5t18 69.5l328 1168h98l328 -1168q8 -30 18 -69.5t15 -61.5t6 -22h4q17 83 35 153l313 1168h92l-387 -1434h-111l-303 1081q-12 41 -25.5 98t-21.5 93l-8 37h-4z" />
    <glyph glyph-name="X" unicode="X" horiz-adv-x="1173" 
d="M61 0l463 758l-411 676h106l275 -457l94 -160h4q45 90 88 160l276 457h107l-416 -676l465 -758h-104l-332 545l-92 153h-4q-43 -83 -86 -155l-328 -543h-105z" />
    <glyph glyph-name="Y" unicode="Y" horiz-adv-x="1138" 
d="M526 0v623l-487 811h100l340 -566l88 -161h4q45 91 88 161l340 566h101l-486 -811v-623h-88z" />
    <glyph glyph-name="Z" unicode="Z" horiz-adv-x="1200" 
d="M90 0v70l789 1151q22 33 46.5 65.5t38.5 49.5l13 16v4q-33 -4 -105 -4h-739v82h950v-70l-788 -1151q-22 -33 -46.5 -65.5t-38.5 -49.5l-13 -16v-4q32 4 104 4h789v-82h-1000z" />
    <glyph glyph-name="bracketleft" unicode="[" horiz-adv-x="546" 
d="M229 -195v1680h222v-82h-134v-1516h134v-82h-222z" />
    <glyph glyph-name="backslash" unicode="\" horiz-adv-x="786" 
d="M600 -86l-518 1602h90l518 -1602h-90z" />
    <glyph glyph-name="bracketright" unicode="]" horiz-adv-x="546" 
d="M96 -113h133v1516h-133v82h221v-1680h-221v82z" />
    <glyph glyph-name="asciicircum" unicode="^" horiz-adv-x="1228" 
d="M158 516l403 918h66l403 -918h-94l-342 795l-342 -795h-94z" />
    <glyph glyph-name="underscore" unicode="_" horiz-adv-x="1179" 
d="M82 0h1016v-82h-1016v82z" />
    <glyph glyph-name="grave" unicode="`" horiz-adv-x="1042" 
d="M557 1536l-162 227h115l137 -227h-90z" />
    <glyph glyph-name="a" unicode="a" horiz-adv-x="1050" 
d="M96 272q0 56 16.5 103.5t42 81.5t66 61t79.5 44.5t92 30t93 18.5t93 9.5t82.5 4t70.5 0.5h68v34q0 306 -281 306q-50 0 -98.5 -10t-82 -24.5t-60 -29.5t-39.5 -25l-13 -10l-49 70q5 5 14.5 12.5t43 27t70.5 34.5t96.5 27t121.5 12q178 0 270.5 -98t92.5 -289v-662h-86
v135q0 24 2 47t4 34l2 11h-4q2 0 -10 -26t-39.5 -63t-67 -74t-104 -63t-138.5 -26q-64 0 -124.5 18t-111.5 53t-81.5 93.5t-30.5 132.5zM186 279q0 -89 70 -156.5t193 -67.5q80 0 148 39t111 102t67 139.5t24 153.5v56h-66q-41 0 -65.5 -0.5t-73 -2.5t-81 -6.5t-79.5 -14
t-78 -22t-66 -33t-55.5 -46.5t-34.5 -62t-14 -79z" />
    <glyph glyph-name="b" unicode="b" horiz-adv-x="1185" 
d="M180 0v1434h86v-533q0 -21 -2 -42t-4 -31l-2 -11h4q4 9 11.5 25t38 56t68.5 70.5t106 55.5t147 25q203 0 322.5 -148t119.5 -389q0 -242 -128 -389.5t-331 -147.5q-72 0 -135 24t-101.5 58t-66.5 68t-39 58l-12 24h-4q8 -37 8 -90v-117h-86zM264 510q0 -118 38 -218
t121 -166.5t198 -66.5q156 0 260 122t104 331q0 205 -99 329t-257 124q-73 0 -137 -26.5t-116 -79.5t-82 -143t-30 -206z" />
    <glyph glyph-name="c" unicode="c" horiz-adv-x="1128" 
d="M109 510q0 119 42.5 221t114.5 171t168.5 108t202.5 39q68 0 131 -15t104 -36.5t72.5 -43t45.5 -36.5l14 -15l-54 -69l-14 14t-39.5 31.5t-64.5 40t-87 31.5t-108 14q-185 0 -311.5 -126.5t-126.5 -328.5q0 -200 127 -325.5t311 -125.5q63 0 121.5 15t97 37t67.5 44
t43 37l13 15l45 -72q-5 -7 -15.5 -17.5t-47.5 -38t-78 -48.5t-108 -38.5t-138 -17.5q-145 0 -264.5 65t-191.5 188t-72 282z" />
    <glyph glyph-name="d" unicode="d" horiz-adv-x="1187" 
d="M113 512q0 242 127.5 389.5t330.5 147.5q72 0 135.5 -24t102 -58t66.5 -68t39 -58l12 -24h4q-8 37 -8 84v533h86v-1434h-86v129q0 21 2 40.5t4 28.5l2 9h-4q-4 -9 -11.5 -25t-38 -56t-68.5 -70.5t-106 -55.5t-147 -25q-203 0 -322.5 148t-119.5 389zM203 512
q0 -205 99 -329t257 -124q73 0 137 26.5t116 79.5t82 143t30 206q0 118 -38 218t-121 166.5t-198 66.5q-156 0 -260 -122t-104 -331z" />
    <glyph glyph-name="e" unicode="e" horiz-adv-x="1132" 
d="M109 510q0 126 40.5 229.5t109.5 170.5t158.5 103t188.5 36q101 0 182.5 -38t132 -103t77 -148t26.5 -178l-4 -56h-821q0 -215 126 -341t312 -126q55 0 108 13.5t89 32.5t64.5 37.5t41.5 31.5l14 14l47 -71q-6 -6 -17 -15.5t-47.5 -34t-76 -43t-100.5 -34t-123 -15.5
q-145 0 -264.5 65t-191.5 188t-72 282zM205 606h729q-7 178 -100 270.5t-230 92.5q-148 0 -260 -95t-139 -268z" />
    <glyph glyph-name="f" unicode="f" horiz-adv-x="624" 
d="M223 0v940h-129v78h129v47q0 96 24.5 168.5t59.5 111.5t82.5 62.5t84 30t73.5 6.5l53 -4v-80q-18 4 -47 4t-57 -5t-63.5 -24t-61.5 -49.5t-44 -87t-18 -131.5v-49h281v-78h-281v-940h-86z" />
    <glyph glyph-name="g" unicode="g" horiz-adv-x="1173" 
d="M244 -274q14 -8 39.5 -20t97.5 -32t137 -20q175 0 282 87.5t107 264.5v119q0 21 2 42t4 31l2 11h-4q-48 -98 -134.5 -153.5t-209.5 -55.5q-201 0 -327.5 145t-126.5 383q0 239 120 380t320 141q81 0 148 -20.5t104 -50.5t62 -59.5t33 -50.5l9 -20h4q-6 14 -6 39v137h86
v-1018q0 -113 -38.5 -199.5t-105 -136.5t-148.5 -75t-177 -25q-164 0 -321 80zM573 84q71 0 129 23.5t106 73.5t74.5 138.5t26.5 208.5q0 437 -356 437q-165 0 -257.5 -115t-92.5 -322q0 -205 102 -324.5t268 -119.5z" />
    <glyph glyph-name="h" unicode="h" horiz-adv-x="1200" 
d="M180 0v1434h86v-590q0 -21 -2 -42t-4 -32l-2 -10h4q12 32 34 67.5t60.5 75.5t86 72t114 53t139.5 21q97 0 164.5 -27.5t104.5 -82.5t53 -124.5t16 -165.5v-649h-86v618q0 61 -4 105t-19 93t-41 79t-74 50t-114 20q-144 0 -259.5 -91.5t-153.5 -234.5q-17 -61 -17 -139
v-500h-86z" />
    <glyph glyph-name="i" unicode="i" horiz-adv-x="446" 
d="M172 1284v150h102v-150h-102zM180 0v1024h86v-1024h-86z" />
    <glyph glyph-name="j" unicode="j" horiz-adv-x="446" 
d="M180 1024h86v-1065q0 -97 -24.5 -169.5t-59.5 -111t-82.5 -62t-84 -30t-74.5 -6.5l-52 4v80q18 -4 45 -4q30 0 58 5t63.5 24t62 49.5t44.5 87t18 131.5v1067zM172 1284v150h102v-150h-102z" />
    <glyph glyph-name="k" unicode="k" horiz-adv-x="983" 
d="M180 0v1434h86v-813h183l331 403h113l-371 -440v-4l406 -580h-109l-370 541h-183v-541h-86z" />
    <glyph glyph-name="l" unicode="l" horiz-adv-x="471" 
d="M170 207v1227h86v-1201q0 -159 121 -159l31 2v-80q-19 -4 -37 -4q-22 0 -44 3.5t-52 17t-52 35.5t-37.5 63t-15.5 96z" />
    <glyph glyph-name="m" unicode="m" horiz-adv-x="1880" 
d="M180 0v1024h86v-180q0 -21 -2 -42t-4 -32l-2 -10h4q38 116 155.5 202.5t237.5 86.5q151 0 228.5 -69.5t95.5 -209.5h4q45 113 154 196t235 83q188 0 265 -102t77 -298v-649h-86v618q0 63 -5.5 111t-22 95t-44.5 77.5t-74.5 49t-109.5 18.5q-122 0 -223 -93t-137 -219
q-21 -71 -21 -157v-500h-86v618q0 60 -4 104.5t-19 94t-41.5 80.5t-73.5 51.5t-112 20.5q-130 0 -232.5 -97t-139.5 -233q-17 -61 -17 -139v-500h-86z" />
    <glyph glyph-name="n" unicode="n" horiz-adv-x="1200" 
d="M180 0v1024h86v-180q0 -21 -2 -42t-4 -32l-2 -10h4q12 32 34 67.5t60.5 75.5t86 72t114 53t139.5 21q97 0 164.5 -27.5t104.5 -82.5t53 -124.5t16 -165.5v-649h-86v618q0 61 -4 105t-19 93t-41 79t-74 50t-114 20q-144 0 -259.5 -91.5t-153.5 -234.5q-17 -61 -17 -139
v-500h-86z" />
    <glyph glyph-name="o" unicode="o" horiz-adv-x="1269" 
d="M104 518q0 147 71 269t193 192t267 70t266.5 -70t192.5 -192t71 -269q0 -150 -71 -275t-192.5 -196.5t-266.5 -71.5q-108 0 -206 42.5t-169.5 114.5t-113.5 173t-42 213zM195 518q0 -194 128 -326.5t312 -132.5t312 132.5t128 326.5q0 189 -128 318t-312 129t-312 -129
t-128 -318z" />
    <glyph glyph-name="p" unicode="p" horiz-adv-x="1185" 
d="M180 -410v1434h86v-123q0 -21 -1.5 -41.5t-2.5 -30.5l-2 -10h4q3 9 10.5 24.5t37.5 55.5t68 70t105.5 55t147.5 25q203 0 322.5 -148t119.5 -389q0 -242 -127 -389.5t-327 -147.5q-74 0 -138.5 24t-103.5 58t-67 68t-39 58l-11 24h-4q8 -37 8 -90v-527h-86zM264 510
q0 -116 40.5 -217.5t123.5 -167.5t193 -66q156 0 260 122t104 331q0 205 -99 329t-257 124q-73 0 -137 -26.5t-116 -79.5t-82 -143t-30 -206z" />
    <glyph glyph-name="q" unicode="q" horiz-adv-x="1187" 
d="M113 512q0 242 127.5 389.5t330.5 147.5q72 0 135 -23.5t101.5 -57.5t66 -68t38.5 -58l12 -23h4q-6 35 -6 82v123h86v-1434h-86v527q0 24 2 46.5t4 32.5l2 11h-4q-4 -9 -11.5 -25t-38 -56t-68.5 -70.5t-106 -55.5t-147 -25q-203 0 -322.5 148t-119.5 389zM203 512
q0 -205 99 -329t257 -124q73 0 137 26.5t116 79.5t82 143t30 206q0 118 -38 218t-121 166.5t-198 66.5q-156 0 -260 -122t-104 -331z" />
    <glyph glyph-name="r" unicode="r" horiz-adv-x="692" 
d="M180 0v1024h86v-195q0 -21 -2 -42t-4 -31l-2 -11h4q41 126 126.5 206.5t201.5 80.5l59 -6v-86q-24 4 -47 4q-113 0 -190.5 -81t-114.5 -206q-31 -97 -31 -215v-442h-86z" />
    <glyph glyph-name="s" unicode="s" horiz-adv-x="892" 
d="M92 123l55 65l14 -14t39.5 -31t65 -39t88.5 -31t111 -14q99 0 167 51t68 142q0 52 -31 92.5t-80.5 66.5t-109.5 49t-120.5 49.5t-110 58.5t-80.5 84t-31 120q0 131 95 204t233 73q59 0 111.5 -11.5t86 -27.5t58.5 -32.5t36 -27.5l11 -12l-51 -70q-3 4 -10 10.5t-31 23
t-51 29.5t-72 23.5t-94 10.5q-97 0 -164.5 -47t-67.5 -140q0 -47 24 -85t64 -61.5t90.5 -47t103.5 -41.5t103.5 -45t90.5 -57.5t64 -79t24 -109.5q0 -122 -93 -199.5t-235 -77.5q-69 0 -133 15t-105.5 37t-73 44t-45.5 37z" />
    <glyph glyph-name="t" unicode="t" horiz-adv-x="643" 
d="M213 371v569h-135v78h135v291h86v-291h268v-78h-268v-563q0 -77 18 -135t44 -89.5t61.5 -50.5t63.5 -24.5t57 -5.5l47 4v-80q-20 -4 -51 -4q-26 0 -51.5 3t-59 13t-62.5 26t-58 45t-49.5 67.5t-33 96.5t-12.5 128z" />
    <glyph glyph-name="u" unicode="u" horiz-adv-x="1189" 
d="M166 375v649h86v-618q0 -61 4 -105t19 -93t41 -79t74 -50t114 -20q124 0 221.5 66.5t148 172t50.5 226.5v500h86v-1024h-86v180q0 21 2 42t4 32l2 10h-4q-12 -32 -33.5 -67.5t-59.5 -75.5t-84 -72t-111 -53t-136 -21q-183 0 -260.5 98.5t-77.5 301.5z" />
    <glyph glyph-name="v" unicode="v" horiz-adv-x="960" 
d="M440 0l-403 1024h92l315 -803l35 -110h4q17 61 35 110l316 803h90l-402 -1024h-82z" />
    <glyph glyph-name="w" unicode="w" horiz-adv-x="1632" 
d="M403 0l-360 1024h92l279 -803l35 -110h4q18 61 34 110l281 799h96l281 -799l35 -110h4q17 59 35 110l278 803h92l-360 -1024h-92l-285 795l-35 110h-4q-17 -61 -35 -110l-282 -795h-93z" />
    <glyph glyph-name="x" unicode="x" horiz-adv-x="974" 
d="M59 0l369 541l-330 483h105l248 -373l34 -57h4q19 30 35 57l248 373h105l-330 -483l368 -541h-106l-283 424l-37 59h-4q-16 -28 -36 -59l-283 -424h-107z" />
    <glyph glyph-name="y" unicode="y" horiz-adv-x="1001" 
d="M16 -373l39 74q6 -5 17.5 -13.5t45 -22t64.5 -13.5q122 0 201 184l74 170l-424 1018h92l338 -817l37 -96h4q15 47 35 96l338 817h92l-527 -1264q-36 -85 -102 -137.5t-158 -52.5q-44 0 -85.5 14t-60.5 28z" />
    <glyph glyph-name="z" unicode="z" horiz-adv-x="1026" 
d="M90 0v70l621 780l80 94v4q-37 -4 -105 -4h-569v80h790v-70l-622 -780q-16 -21 -36.5 -44.5t-32.5 -36.5l-13 -13v-4q38 4 106 4h621v-80h-840z" />
    <glyph glyph-name="braceleft" unicode="{" horiz-adv-x="665" 
d="M287 180v193q0 61 -18 108.5t-43.5 72t-51 39.5t-43.5 19l-18 4v82q7 1 19 4t42 19t52.5 40t41.5 72t19 109v166q0 99 23.5 172.5t55 110.5t74 59.5t70.5 27.5t55 5h19v-80h-13q-19 0 -39 -4t-50 -21.5t-52 -46.5t-38.5 -86.5t-16.5 -134.5v-190q0 -56 -16.5 -103
t-40.5 -75t-48 -48t-40 -28l-17 -7v-4q7 -2 17.5 -7t38.5 -25t49.5 -46.5t39 -75t17.5 -106.5v-217q0 -77 16.5 -134.5t38.5 -86.5t52 -46.5t50 -21.5t39 -4h13v-80q-7 -2 -19 -2q-27 0 -55 5t-70.5 27.5t-74 60t-55 111.5t-23.5 173z" />
    <glyph glyph-name="bar" unicode="|" horiz-adv-x="542" 
d="M227 -317v1925h88v-1925h-88z" />
    <glyph glyph-name="braceright" unicode="}" horiz-adv-x="665" 
d="M82 -115h12q19 0 39 4t50 21.5t52.5 46.5t39 86.5t16.5 134.5v217q0 58 16.5 106t40.5 75.5t48 46.5t40 25l17 7v4q-7 3 -17.5 8t-38.5 26.5t-49.5 48.5t-39 74.5t-17.5 103.5v190q0 77 -16.5 134.5t-39 86.5t-52.5 46.5t-50 21.5t-39 4h-12v80h18q27 0 55 -5t71 -27.5
t74.5 -59.5t55 -110.5t23.5 -172.5v-166q0 -61 18 -109t43.5 -72t51 -39.5t43.5 -19.5l18 -4v-82q-7 -1 -19 -4t-42 -19t-52.5 -39.5t-41.5 -71.5t-19 -109v-193q0 -99 -23.5 -173t-55 -111.5t-74.5 -60t-71 -27.5t-55 -5l-18 2v80z" />
    <glyph glyph-name="asciitilde" unicode="~" horiz-adv-x="1212" 
d="M162 436q0 152 64 223.5t171 71.5q54 0 98.5 -16.5t72 -41.5t56.5 -54.5t53 -54.5t61 -41.5t81 -16.5q39 0 68.5 16.5t45 39.5t25.5 55t12.5 56.5t2.5 49.5h82q0 -152 -64.5 -223.5t-171.5 -71.5q-54 0 -98.5 16.5t-72 41.5t-56.5 54.5t-53 54.5t-61 41.5t-81 16.5
q-48 0 -81 -23t-47.5 -60.5t-19.5 -69t-5 -64.5h-82z" />
    <glyph glyph-name="uni00A0" unicode="&#xa0;" horiz-adv-x="567" 
 />
    <glyph glyph-name="exclamdown" unicode="&#xa1;" horiz-adv-x="534" 
d="M223 -410v1076h88v-1076h-88zM205 899v125h121v-125h-121z" />
    <glyph glyph-name="cent" unicode="&#xa2;" horiz-adv-x="1161" 
d="M561 -27v172q-140 12 -238.5 93t-144 203.5t-45.5 275.5q0 114 26.5 212.5t78.5 175.5t134.5 125.5t188.5 57.5v170h88v-170q250 -22 379 -291l-84 -32q-114 237 -334 237q-99 0 -174.5 -37.5t-120.5 -105t-67.5 -153.5t-22.5 -189t22.5 -189.5t67.5 -153.5t120.5 -105
t174.5 -38q219 0 334 238l84 -33q-131 -271 -379 -291v-172h-88z" />
    <glyph glyph-name="sterling" unicode="&#xa3;" horiz-adv-x="1198" 
d="M164 682v82h92v332q0 154 114 258t289 104q51 0 101 -10.5t84.5 -26t62 -31t41.5 -26.5l13 -10l-60 -68q-4 3 -11.5 9t-33 21t-52 26t-67 20.5t-80.5 9.5q-147 0 -230 -82.5t-83 -202.5v-323h406v-82h-406v-600h719v-82h-940v82h133v600h-92z" />
    <glyph glyph-name="yen" unicode="&#xa5;" horiz-adv-x="1224" 
d="M236 721v82h225l-379 631h100l340 -566l88 -161h4q45 91 88 161l340 566h101l-379 -631h221v-82h-270l-58 -98v-86h328v-82h-328v-455h-88v455h-333v82h333v86l-59 98h-274z" />
    <glyph glyph-name="section" unicode="&#xa7;" horiz-adv-x="798" 
d="M291 127l-137 971q-4 32 -4 51q0 133 91.5 221t231.5 88q48 0 96 -17t71 -33l24 -17l-54 -66q-7 5 -19 13.5t-48 22t-72 13.5q-99 0 -165 -63.5t-66 -167.5q0 -15 4 -43l133 -973h-86zM129 -59l53 65q7 -5 19 -13.5t48.5 -22t72.5 -13.5q99 0 164 63.5t65 167.5
q0 29 -2 43l-133 973h86l137 -971q4 -36 4 -51q0 -133 -92 -221t-232 -88q-48 0 -95.5 17t-71.5 34z" />
    <glyph glyph-name="dieresis" unicode="&#xa8;" horiz-adv-x="1042" 
d="M614 1614v149h95v-149h-95zM334 1614v149h94v-149h-94z" />
    <glyph glyph-name="copyright" unicode="&#xa9;" horiz-adv-x="1716" 
d="M133 717q0 152 57 289.5t153.5 236.5t230 157t280.5 58q150 0 285 -58t232.5 -157t154.5 -236t57 -290t-57 -291t-154.5 -236.5t-232.5 -156.5t-285 -58q-197 0 -362.5 98t-262 269t-96.5 375zM225 717q0 -183 83 -333.5t227.5 -236.5t318.5 -86q177 0 323.5 86
t230 236.5t83.5 333.5q0 136 -49.5 257.5t-134 208.5t-202.5 138t-251 51q-174 0 -318.5 -86t-227.5 -236.5t-83 -332.5zM438 715q0 82 28.5 158.5t82 138t139.5 98.5t191 37q60 0 116 -18.5t93.5 -45t67 -53t42.5 -44.5l14 -19l-67 -60q-4 6 -11.5 16.5t-33.5 36.5
t-54.5 46t-73.5 36.5t-91 16.5q-165 0 -258 -101.5t-93 -240.5q0 -65 22.5 -125.5t65 -109t111 -78t152.5 -29.5q48 0 92.5 15.5t74.5 37.5t53 44.5t33 37.5l11 16l67 -59q-5 -7 -14.5 -19.5t-42 -43.5t-68.5 -54.5t-92.5 -43t-115.5 -19.5q-106 0 -192 36.5t-139 97.5
t-81.5 136.5t-28.5 157.5z" />
    <glyph glyph-name="ordfeminine" unicode="&#xaa;" horiz-adv-x="876" 
d="M412 782q-92 0 -160 49.5t-68 141.5q0 227 398 227h28v8q0 170 -155 170q-44 0 -88 -15t-66 -29l-22 -15l-46 61q10 8 28 20.5t76.5 33t119.5 20.5q233 0 233 -246v-413h-80v104h-4q-2 -5 -7 -13t-23 -28t-38.5 -35.5t-54.5 -28t-71 -12.5zM414 858q88 0 142 77t54 171
v20h-26q-33 0 -56.5 -1t-65.5 -4.5t-71.5 -13.5t-60 -25t-46.5 -41t-16 -60q0 -51 38 -87t108 -36zM178 539v75h518v-75h-518z" />
    <glyph glyph-name="guillemotleft" unicode="&#xab;" horiz-adv-x="1005" 
d="M438 578l336 421h109l-336 -421l336 -420h-109zM446 158l-335 420l335 421h109l-336 -421l336 -420h-109z" />
    <glyph glyph-name="logicalnot" unicode="&#xac;" horiz-adv-x="1300" 
d="M184 702v82h934v-448h-86v366h-848z" />
    <glyph glyph-name="uni00AD" unicode="&#xad;" horiz-adv-x="884" 
d="M160 539v82h565v-82h-565z" />
    <glyph glyph-name="registered" unicode="&#xae;" horiz-adv-x="1716" 
d="M133 717q0 152 57 289.5t153.5 236.5t230 157t280.5 58q150 0 285 -58t232.5 -157t154.5 -236t57 -290t-57 -291t-154.5 -236.5t-232.5 -156.5t-285 -58q-197 0 -362.5 98t-262 269t-96.5 375zM225 717q0 -183 83 -333.5t227.5 -236.5t318.5 -86q177 0 323.5 86
t230 236.5t83.5 333.5q0 136 -49.5 257.5t-134 208.5t-202.5 138t-251 51q-174 0 -318.5 -86t-227.5 -236.5t-83 -332.5zM616 307v819h273q105 0 171 -65t66 -172q0 -87 -45 -145t-112 -74v-4q8 -10 26 -45l162 -314h-100l-174 342h-176v-342h-91zM707 727h172
q71 0 113 43.5t42 118.5q0 73 -42 114t-113 41h-172v-317z" />
    <glyph glyph-name="macron" unicode="&#xaf;" horiz-adv-x="1042" 
d="M276 1610v82h490v-82h-490z" />
    <glyph glyph-name="degree" unicode="&#xb0;" horiz-adv-x="759" 
d="M379 920q-110 0 -188 78t-78 188t78 189t188 79t189 -79t79 -189t-79 -188t-189 -78zM379 1001q76 0 128 54t52 131t-52 131.5t-128 54.5t-127 -54.5t-51 -131.5t51 -131t127 -54z" />
    <glyph glyph-name="plusminus" unicode="&#xb1;" horiz-adv-x="1404" 
d="M174 539v82h485v538h89v-538h483v-82h-483v-539h-89v539h-485zM215 -231h975v-82h-975v82z" />
    <glyph glyph-name="twosuperior" unicode="&#xb2;" 
d="M113 866q-4 36 -4 56q0 67 25 124t65 96.5t88 75t96 68t88 65.5t65 77.5t25 95.5q0 74 -51.5 126t-134.5 52q-52 0 -100 -26t-71 -52l-22 -25l-49 54q4 5 10.5 13.5t29.5 29.5t49 37t67.5 29.5t85.5 13.5q126 0 196 -73t70 -179q0 -62 -24.5 -114.5t-64 -89.5t-87 -70
t-96 -65t-88.5 -65.5t-65.5 -79.5t-27.5 -100h469v-74h-544z" />
    <glyph glyph-name="threesuperior" unicode="&#xb3;" 
d="M377 846q-55 0 -104 13.5t-80.5 33t-55 39.5t-33.5 34l-10 13l58 53q3 -5 8.5 -12.5t26.5 -26.5t45 -34t63.5 -27t83.5 -12q79 0 145 59.5t66 146.5q0 89 -66.5 143t-152.5 54h-66l-22 49l221 260q10 12 23 24.5t21 19.5l7 7v5q-37 -7 -78 -7h-336v74h523v-53l-263 -307
q36 -3 71 -12t71.5 -29.5t64 -49.5t45 -75t17.5 -103q0 -117 -86.5 -198.5t-206.5 -81.5z" />
    <glyph glyph-name="acute" unicode="&#xb4;" horiz-adv-x="1042" 
d="M395 1536l137 227h115l-162 -227h-90z" />
    <glyph glyph-name="mu" unicode="&#xb5;" horiz-adv-x="1224" 
d="M190 -410v1434h86v-618q0 -61 4 -105t19 -93t41 -79t74 -50t114 -20q124 0 221.5 66.5t148 172t50.5 226.5v500h86v-1024h-86v170l4 84h-4q-2 -6 -6.5 -16t-22 -39t-38.5 -55.5t-56.5 -58.5t-76 -55t-98.5 -39t-122 -16q-56 0 -103.5 11t-75 26t-47 30.5t-26.5 26.5
l-8 11h-4q12 -105 12 -148v-342h-86z" />
    <glyph glyph-name="mu" unicode="&#x3bc;" horiz-adv-x="1224" 
d="M190 -410v1434h86v-618q0 -61 4 -105t19 -93t41 -79t74 -50t114 -20q124 0 221.5 66.5t148 172t50.5 226.5v500h86v-1024h-86v170l4 84h-4q-2 -6 -6.5 -16t-22 -39t-38.5 -55.5t-56.5 -58.5t-76 -55t-98.5 -39t-122 -16q-56 0 -103.5 11t-75 26t-47 30.5t-26.5 26.5
l-8 11h-4q12 -105 12 -148v-342h-86z" />
    <glyph glyph-name="paragraph" unicode="&#xb6;" horiz-adv-x="1128" 
d="M602 -102v596q-131 0 -243.5 62t-180 171t-67.5 238t67 237.5t179 170t243 61.5h430v-82h-342v-1454h-86zM815 -102v1325h86v-1325h-86z" />
    <glyph glyph-name="periodcentered" unicode="&#xb7;" horiz-adv-x="559" 
d="M217 522v129h125v-129h-125z" />
    <glyph glyph-name="cedilla" unicode="&#xb8;" horiz-adv-x="1042" 
d="M477 37l66 -10v-17l-25 -133q64 -9 102.5 -46.5t38.5 -92.5q0 -79 -53 -117.5t-133 -38.5q-24 0 -46.5 2t-32.5 4l-11 2v78q37 -10 84 -10q111 0 111 76q0 36 -33 57t-92 21l-25 -2z" />
    <glyph glyph-name="onesuperior" unicode="&#xb9;" 
d="M158 866v74h196v666l2 45h-2q-8 -17 -47 -56l-90 -88l-53 56l190 192h78v-815h191v-74h-465z" />
    <glyph glyph-name="ordmasculine" unicode="&#xba;" horiz-adv-x="974" 
d="M485 784q-139 0 -236 98t-97 242q0 139 97.5 235.5t235.5 96.5q139 0 236.5 -96.5t97.5 -235.5q0 -144 -97.5 -242t-236.5 -98zM485 860q107 0 180.5 75.5t73.5 188.5q0 109 -73.5 182.5t-180.5 73.5t-180.5 -73.5t-73.5 -182.5q0 -113 73.5 -188.5t180.5 -75.5zM188 539
v75h603v-75h-603z" />
    <glyph glyph-name="guillemotright" unicode="&#xbb;" horiz-adv-x="1005" 
d="M451 158l335 420l-335 421h108l336 -421l-336 -420h-108zM123 158l336 420l-336 421h108l336 -421l-336 -420h-108z" />
    <glyph glyph-name="onequarter" unicode="&#xbc;" horiz-adv-x="1988" 
d="M1702 0v248h-440v53l454 588h64v-567h139v-74h-139v-248h-78zM1374 322h328v301l6 133h-4q-35 -56 -72 -103l-258 -327v-4zM272 545v73h197v666l2 45h-2q-8 -16 -47 -55l-90 -88l-53 55l190 193h78v-816h190v-73h-465zM748 0h-91l689 1434h88z" />
    <glyph glyph-name="onehalf" unicode="&#xbd;" horiz-adv-x="1882" 
d="M606 0h-90l688 1434h88zM131 545v73h197v666l2 45h-2q-8 -16 -47 -55l-91 -88l-53 55l191 193h78v-816h190v-73h-465zM1182 0q-4 36 -4 55q0 67 25 124t65 96.5t88 75t96 68t88 65.5t65 77.5t25 95.5q0 74 -52 126.5t-134 52.5q-52 0 -100 -26t-70 -52l-23 -25l-49 53
q4 5 10.5 13.5t29.5 29.5t49 37t67.5 29.5t85.5 13.5q126 0 196 -73t70 -179q0 -62 -24.5 -114.5t-64 -89t-87 -70t-96 -65t-88.5 -65t-65.5 -79.5t-27.5 -100h469v-74h-544z" />
    <glyph glyph-name="threequarters" unicode="&#xbe;" horiz-adv-x="1955" 
d="M391 524q-55 0 -104 13.5t-80 33t-54.5 39.5t-33.5 34l-10 13l57 54q3 -5 8.5 -12.5t26.5 -27t45 -34.5t63.5 -27t83.5 -12q79 0 145 60t66 147q0 89 -66.5 142.5t-152.5 53.5h-66l-22 50l221 260q10 12 23 24.5t21 19.5l7 7v4q-36 -6 -77 -6h-336v74h522v-54l-262 -307
q46 -3 89.5 -18t85.5 -44.5t67.5 -82.5t25.5 -123q0 -117 -86.5 -199t-206.5 -82zM655 0h-90l688 1434h88zM1610 0v248h-441v53l455 588h64v-567h139v-74h-139v-248h-78zM1282 322h328v301l6 133h-4q-35 -56 -72 -103l-258 -327v-4z" />
    <glyph glyph-name="questiondown" unicode="&#xbf;" horiz-adv-x="878" 
d="M98 -78q0 69 20.5 127.5t53 101t72 80.5t79.5 74.5t72.5 75t53 89.5t20.5 110v86h88v-86q0 -68 -20 -126.5t-52.5 -101t-71.5 -81t-78.5 -75.5t-72 -76t-52.5 -90t-20 -110q0 -112 83.5 -188t215.5 -76q67 0 132 21.5t97 42.5l32 22l47 -70q-5 -4 -14 -11t-40 -24.5
t-64.5 -31t-84 -24.5t-102.5 -11q-175 0 -284.5 99.5t-109.5 252.5zM453 899v125h120v-125h-120z" />
    <glyph glyph-name="Agrave" unicode="&#xc0;" horiz-adv-x="1241" 
d="M1110 0l-186 496h-609l-184 -496h-94l536 1434h95l536 -1434h-94zM623 1331h-5q-30 -111 -53 -172l-219 -581h547l-217 581q-10 27 -23.5 70t-21.5 73zM575 1536l-161 227h114l138 -227h-91z" />
    <glyph glyph-name="Aacute" unicode="&#xc1;" horiz-adv-x="1241" 
d="M1110 0l-186 496h-609l-184 -496h-94l536 1434h95l536 -1434h-94zM623 1331h-5q-30 -111 -53 -172l-219 -581h547l-217 581q-10 27 -23.5 70t-21.5 73zM573 1536l138 227h114l-161 -227h-91z" />
    <glyph glyph-name="Acircumflex" unicode="&#xc2;" horiz-adv-x="1241" 
d="M1110 0l-186 496h-609l-184 -496h-94l536 1434h95l536 -1434h-94zM623 1331h-5q-30 -111 -53 -172l-219 -581h547l-217 581q-10 27 -23.5 70t-21.5 73zM403 1536l164 227h107l164 -227h-101l-114 164h-5l-114 -164h-101z" />
    <glyph glyph-name="Atilde" unicode="&#xc3;" horiz-adv-x="1241" 
d="M1110 0l-186 496h-609l-184 -496h-94l536 1434h95l536 -1434h-94zM623 1331h-5q-30 -111 -53 -172l-219 -581h547l-217 581q-10 27 -23.5 70t-21.5 73zM326 1542q0 221 170 221q38 0 69.5 -15.5t53.5 -37.5t41.5 -44.5t43.5 -38t50 -15.5q25 0 43 15.5t25.5 40.5t10.5 46
t3 43h82q0 -221 -170 -221q-46 0 -84.5 24t-60.5 52t-52 52t-62 24q-25 0 -42.5 -15.5t-25 -40.5t-10.5 -46.5t-3 -43.5h-82z" />
    <glyph glyph-name="Adieresis" unicode="&#xc4;" horiz-adv-x="1241" 
d="M1110 0l-186 496h-609l-184 -496h-94l536 1434h95l536 -1434h-94zM623 1331h-5q-30 -111 -53 -172l-219 -581h547l-217 581q-10 27 -23.5 70t-21.5 73zM715 1614v149h94v-149h-94zM434 1614v149h94v-149h-94z" />
    <glyph glyph-name="Aring" unicode="&#xc5;" horiz-adv-x="1241" 
d="M1110 0l-186 496h-609l-184 -496h-94l536 1434h95l536 -1434h-94zM623 1331h-5q-30 -111 -53 -172l-219 -581h547l-217 581q-10 27 -23.5 70t-21.5 73zM621 1516q-59 0 -98.5 39.5t-39.5 97.5t39.5 97.5t98.5 39.5t98 -39t39 -98t-39 -98t-98 -39zM621 1587q29 0 47 18.5
t18 47.5q0 31 -18 49t-47 18t-47.5 -18t-18.5 -49q0 -29 18.5 -47.5t47.5 -18.5z" />
    <glyph glyph-name="AE" unicode="&#xc6;" horiz-adv-x="1703" 
d="M33 0l588 1434h919v-82h-696v-588h571v-82h-571v-600h735v-82h-823v682h-350l-279 -682h-94zM682 1352l-242 -588h316v588h-74z" />
    <glyph glyph-name="Ccedilla" unicode="&#xc7;" horiz-adv-x="1505" 
d="M127 727q0 205 93 372.5t256 263t362 95.5q95 0 183 -18.5t145 -45t100.5 -53t63.5 -45.5l20 -18l-54 -66q-7 7 -20 17.5t-57.5 38.5t-94 49.5t-127 39t-157.5 17.5q-130 0 -245 -49.5t-197.5 -134.5t-130.5 -205.5t-48 -257.5q0 -184 81 -337t225 -242t321 -89
q86 0 167.5 20t136.5 48.5t98 57.5t63 49l20 20l55 -61q-8 -9 -22.5 -23t-65 -51t-107 -65.5t-146.5 -52.5t-185 -26l-18 -98q64 -9 102.5 -46.5t38.5 -92.5q0 -79 -53 -117.5t-133 -38.5q-24 0 -46.5 2t-32.5 4l-11 2v78q37 -10 84 -10q110 0 110 76q0 36 -33 57t-92 21
l-24 -2l34 167q-190 14 -341 117.5t-234.5 269.5t-83.5 363z" />
    <glyph glyph-name="Egrave" unicode="&#xc8;" horiz-adv-x="1169" 
d="M221 0v1434h785v-82h-697v-588h572v-82h-572v-600h735v-82h-823zM594 1536l-162 227h115l137 -227h-90z" />
    <glyph glyph-name="Eacute" unicode="&#xc9;" horiz-adv-x="1169" 
d="M221 0v1434h785v-82h-697v-588h572v-82h-572v-600h735v-82h-823zM592 1536l137 227h115l-162 -227h-90z" />
    <glyph glyph-name="Ecircumflex" unicode="&#xca;" horiz-adv-x="1169" 
d="M221 0v1434h785v-82h-697v-588h572v-82h-572v-600h735v-82h-823zM422 1536l164 227h106l164 -227h-100l-115 164h-4l-115 -164h-100z" />
    <glyph glyph-name="Edieresis" unicode="&#xcb;" horiz-adv-x="1169" 
d="M221 0v1434h785v-82h-697v-588h572v-82h-572v-600h735v-82h-823zM733 1614v149h94v-149h-94zM453 1614v149h94v-149h-94z" />
    <glyph glyph-name="Igrave" unicode="&#xcc;" horiz-adv-x="530" 
d="M221 0v1434h88v-1434h-88zM221 1536l-162 227h115l137 -227h-90z" />
    <glyph glyph-name="Iacute" unicode="&#xcd;" horiz-adv-x="530" 
d="M221 0v1434h88v-1434h-88zM219 1536l137 227h115l-162 -227h-90z" />
    <glyph glyph-name="Icircumflex" unicode="&#xce;" horiz-adv-x="530" 
d="M221 0v1434h88v-1434h-88zM49 1536l164 227h106l164 -227h-100l-115 164h-4l-114 -164h-101z" />
    <glyph glyph-name="Idieresis" unicode="&#xcf;" horiz-adv-x="530" 
d="M221 0v1434h88v-1434h-88zM360 1614v149h95v-149h-95zM80 1614v149h94v-149h-94z" />
    <glyph glyph-name="Eth" unicode="&#xd0;" horiz-adv-x="1542" 
d="M123 682v82h123v670h450q325 0 520 -190.5t195 -526.5q0 -337 -195 -527t-520 -190h-450v682h-123zM334 82h348q292 0 464.5 166t172.5 469q0 302 -173 468.5t-464 166.5h-348v-588h375v-82h-375v-600z" />
    <glyph glyph-name="Ntilde" unicode="&#xd1;" horiz-adv-x="1540" 
d="M221 0v1434h82l817 -1125q21 -29 50 -74t48 -75l19 -31h4q-10 108 -10 180v1125h88v-1434h-82l-817 1124q-21 29 -50 74.5t-48 75.5l-19 31h-4q10 -109 10 -181v-1124h-88zM475 1542q0 221 170 221q38 0 69.5 -15.5t53.5 -37.5t41.5 -44.5t43.5 -38t50 -15.5
q25 0 43 15.5t25.5 40.5t10.5 46t3 43h82q0 -221 -170 -221q-38 0 -69.5 15.5t-53.5 38t-41.5 45t-43.5 38t-50 15.5q-33 0 -53 -28.5t-24.5 -57.5t-4.5 -60h-82z" />
    <glyph glyph-name="Ograve" unicode="&#xd2;" horiz-adv-x="1691" 
d="M121 727q0 152 57.5 288t155 232.5t231.5 153.5t281 57t281 -57t231.5 -153.5t155 -232.5t57.5 -288q0 -155 -57.5 -295t-155 -240t-231.5 -158.5t-281 -58.5t-281 58.5t-231.5 158.5t-155 240t-57.5 295zM213 727q0 -185 85 -339t230 -241.5t318 -87.5t318 87.5
t230 241.5t85 339q0 180 -85 329t-230 233.5t-318 84.5t-318 -84.5t-230 -233.5t-85 -329zM801 1536l-162 227h115l137 -227h-90z" />
    <glyph glyph-name="Oacute" unicode="&#xd3;" horiz-adv-x="1691" 
d="M121 727q0 152 57.5 288t155 232.5t231.5 153.5t281 57t281 -57t231.5 -153.5t155 -232.5t57.5 -288q0 -155 -57.5 -295t-155 -240t-231.5 -158.5t-281 -58.5t-281 58.5t-231.5 158.5t-155 240t-57.5 295zM213 727q0 -185 85 -339t230 -241.5t318 -87.5t318 87.5
t230 241.5t85 339q0 180 -85 329t-230 233.5t-318 84.5t-318 -84.5t-230 -233.5t-85 -329zM799 1536l137 227h115l-162 -227h-90z" />
    <glyph glyph-name="Ocircumflex" unicode="&#xd4;" horiz-adv-x="1691" 
d="M121 727q0 152 57.5 288t155 232.5t231.5 153.5t281 57t281 -57t231.5 -153.5t155 -232.5t57.5 -288q0 -155 -57.5 -295t-155 -240t-231.5 -158.5t-281 -58.5t-281 58.5t-231.5 158.5t-155 240t-57.5 295zM213 727q0 -185 85 -339t230 -241.5t318 -87.5t318 87.5
t230 241.5t85 339q0 180 -85 329t-230 233.5t-318 84.5t-318 -84.5t-230 -233.5t-85 -329zM629 1536l164 227h106l164 -227h-100l-115 164h-4l-115 -164h-100z" />
    <glyph glyph-name="Otilde" unicode="&#xd5;" horiz-adv-x="1691" 
d="M121 727q0 152 57.5 288t155 232.5t231.5 153.5t281 57t281 -57t231.5 -153.5t155 -232.5t57.5 -288q0 -155 -57.5 -295t-155 -240t-231.5 -158.5t-281 -58.5t-281 58.5t-231.5 158.5t-155 240t-57.5 295zM213 727q0 -185 85 -339t230 -241.5t318 -87.5t318 87.5
t230 241.5t85 339q0 180 -85 329t-230 233.5t-318 84.5t-318 -84.5t-230 -233.5t-85 -329zM551 1542q0 221 170 221q38 0 69.5 -15.5t53.5 -37.5t41.5 -44.5t43.5 -38t50 -15.5q25 0 43 15.5t25.5 40.5t10.5 46t3 43h82q0 -221 -170 -221q-38 0 -69.5 15.5t-53.5 38
t-41.5 45t-43.5 38t-50 15.5q-33 0 -53 -28.5t-24.5 -57.5t-4.5 -60h-82z" />
    <glyph glyph-name="Odieresis" unicode="&#xd6;" horiz-adv-x="1691" 
d="M121 727q0 152 57.5 288t155 232.5t231.5 153.5t281 57t281 -57t231.5 -153.5t155 -232.5t57.5 -288q0 -155 -57.5 -295t-155 -240t-231.5 -158.5t-281 -58.5t-281 58.5t-231.5 158.5t-155 240t-57.5 295zM213 727q0 -185 85 -339t230 -241.5t318 -87.5t318 87.5
t230 241.5t85 339q0 180 -85 329t-230 233.5t-318 84.5t-318 -84.5t-230 -233.5t-85 -329zM940 1614v149h94v-149h-94zM659 1614v149h95v-149h-95z" />
    <glyph glyph-name="multiply" unicode="&#xd7;" horiz-adv-x="1347" 
d="M160 57l458 523l-458 522l57 57l457 -518l456 518l58 -57l-461 -522l461 -523l-58 -57l-456 518l-457 -518z" />
    <glyph glyph-name="Oslash" unicode="&#xd8;" horiz-adv-x="1701" 
d="M127 727q0 152 57.5 288t155 232.5t231.5 153.5t281 57q211 0 393 -117l101 142l69 -51l-100 -142q123 -102 192.5 -248.5t69.5 -314.5q0 -155 -57.5 -295t-155 -240t-231.5 -158.5t-281 -58.5q-213 0 -393 119l-101 -141l-71 49l102 143q-123 105 -192.5 256t-69.5 326z
M1485 727q0 148 -59 276t-162 218l-756 -1057q151 -105 344 -105q173 0 318 87.5t230 241.5t85 339zM219 727q0 -152 59 -284.5t162 -225.5l754 1055q-151 102 -342 102q-173 0 -318 -84.5t-230 -233.5t-85 -329z" />
    <glyph glyph-name="Ugrave" unicode="&#xd9;" horiz-adv-x="1472" 
d="M201 492v942h88v-938q0 -202 121 -319.5t325 -117.5t326.5 118.5t122.5 322.5v934h88v-942q0 -234 -148.5 -375.5t-386.5 -141.5t-387 141.5t-149 375.5zM690 1536l-162 227h115l137 -227h-90z" />
    <glyph glyph-name="Uacute" unicode="&#xda;" horiz-adv-x="1472" 
d="M201 492v942h88v-938q0 -202 121 -319.5t325 -117.5t326.5 118.5t122.5 322.5v934h88v-942q0 -234 -148.5 -375.5t-386.5 -141.5t-387 141.5t-149 375.5zM688 1536l137 227h115l-162 -227h-90z" />
    <glyph glyph-name="Ucircumflex" unicode="&#xdb;" horiz-adv-x="1472" 
d="M201 492v942h88v-938q0 -202 121 -319.5t325 -117.5t326.5 118.5t122.5 322.5v934h88v-942q0 -234 -148.5 -375.5t-386.5 -141.5t-387 141.5t-149 375.5zM518 1536l164 227h106l164 -227h-100l-115 164h-4l-115 -164h-100z" />
    <glyph glyph-name="Udieresis" unicode="&#xdc;" horiz-adv-x="1472" 
d="M201 492v942h88v-938q0 -202 121 -319.5t325 -117.5t326.5 118.5t122.5 322.5v934h88v-942q0 -234 -148.5 -375.5t-386.5 -141.5t-387 141.5t-149 375.5zM829 1614v149h95v-149h-95zM549 1614v149h94v-149h-94z" />
    <glyph glyph-name="Yacute" unicode="&#xdd;" horiz-adv-x="1138" 
d="M526 0v623l-487 811h100l340 -566l88 -161h4q45 91 88 161l340 566h101l-486 -811v-623h-88zM522 1536l137 227h115l-162 -227h-90z" />
    <glyph glyph-name="Thorn" unicode="&#xde;" horiz-adv-x="1216" 
d="M221 0v1434h88v-267h383q191 0 313.5 -113t122.5 -304q0 -192 -123 -307t-317 -115h-379v-328h-88zM309 410h379q159 0 253.5 90.5t94.5 249.5t-94.5 247t-253.5 88h-379v-675z" />
    <glyph glyph-name="germandbls" unicode="&#xdf;" horiz-adv-x="1153" 
d="M180 0v1090q0 70 22 130t59 103.5t86.5 74t104.5 45.5t113 15q152 0 241 -84.5t89 -197.5q0 -62 -25.5 -116t-62 -91.5t-73 -71.5t-62 -70.5t-25.5 -72.5q0 -30 24 -60.5t62 -57.5t84 -56t92 -62.5t84 -70t62 -84.5t24 -101q0 -132 -92 -204t-223 -72q-56 0 -109 7.5
t-88.5 17.5t-63.5 20.5t-41 18.5l-13 7v95q5 -3 15 -8.5t42.5 -20t67 -25t87 -19.5t105.5 -9q95 0 159 49t64 143q0 60 -44.5 112.5t-108 93t-127 80.5t-108 91.5t-44.5 110.5q0 51 25.5 97t62 82t73 71.5t62 81t25.5 94.5q0 77 -64.5 137.5t-179.5 60.5q-117 0 -206 -79.5
t-89 -211.5v-1083h-86z" />
    <glyph glyph-name="agrave" unicode="&#xe0;" horiz-adv-x="1050" 
d="M96 272q0 56 16.5 103.5t42 81.5t66 61t79.5 44.5t92 30t93 18.5t93 9.5t82.5 4t70.5 0.5h68v34q0 306 -281 306q-50 0 -98.5 -10t-82 -24.5t-60 -29.5t-39.5 -25l-13 -10l-49 70q5 5 14.5 12.5t43 27t70.5 34.5t96.5 27t121.5 12q178 0 270.5 -98t92.5 -289v-662h-86
v135q0 24 2 47t4 34l2 11h-4q2 0 -10 -26t-39.5 -63t-67 -74t-104 -63t-138.5 -26q-64 0 -124.5 18t-111.5 53t-81.5 93.5t-30.5 132.5zM186 279q0 -89 70 -156.5t193 -67.5q80 0 148 39t111 102t67 139.5t24 153.5v56h-66q-41 0 -65.5 -0.5t-73 -2.5t-81 -6.5t-79.5 -14
t-78 -22t-66 -33t-55.5 -46.5t-34.5 -62t-14 -79zM477 1206l-162 228h115l137 -228h-90z" />
    <glyph glyph-name="aacute" unicode="&#xe1;" horiz-adv-x="1050" 
d="M96 272q0 56 16.5 103.5t42 81.5t66 61t79.5 44.5t92 30t93 18.5t93 9.5t82.5 4t70.5 0.5h68v34q0 306 -281 306q-50 0 -98.5 -10t-82 -24.5t-60 -29.5t-39.5 -25l-13 -10l-49 70q5 5 14.5 12.5t43 27t70.5 34.5t96.5 27t121.5 12q178 0 270.5 -98t92.5 -289v-662h-86
v135q0 24 2 47t4 34l2 11h-4q2 0 -10 -26t-39.5 -63t-67 -74t-104 -63t-138.5 -26q-64 0 -124.5 18t-111.5 53t-81.5 93.5t-30.5 132.5zM186 279q0 -89 70 -156.5t193 -67.5q80 0 148 39t111 102t67 139.5t24 153.5v56h-66q-41 0 -65.5 -0.5t-73 -2.5t-81 -6.5t-79.5 -14
t-78 -22t-66 -33t-55.5 -46.5t-34.5 -62t-14 -79zM473 1206l137 228h115l-162 -228h-90z" />
    <glyph glyph-name="acircumflex" unicode="&#xe2;" horiz-adv-x="1050" 
d="M96 272q0 56 16.5 103.5t42 81.5t66 61t79.5 44.5t92 30t93 18.5t93 9.5t82.5 4t70.5 0.5h68v34q0 306 -281 306q-50 0 -98.5 -10t-82 -24.5t-60 -29.5t-39.5 -25l-13 -10l-49 70q5 5 14.5 12.5t43 27t70.5 34.5t96.5 27t121.5 12q178 0 270.5 -98t92.5 -289v-662h-86
v135q0 24 2 47t4 34l2 11h-4q2 0 -10 -26t-39.5 -63t-67 -74t-104 -63t-138.5 -26q-64 0 -124.5 18t-111.5 53t-81.5 93.5t-30.5 132.5zM186 279q0 -89 70 -156.5t193 -67.5q80 0 148 39t111 102t67 139.5t24 153.5v56h-66q-41 0 -65.5 -0.5t-73 -2.5t-81 -6.5t-79.5 -14
t-78 -22t-66 -33t-55.5 -46.5t-34.5 -62t-14 -79zM305 1206l164 228h106l164 -228h-100l-115 164h-4l-114 -164h-101z" />
    <glyph glyph-name="atilde" unicode="&#xe3;" horiz-adv-x="1050" 
d="M96 272q0 56 16.5 103.5t42 81.5t66 61t79.5 44.5t92 30t93 18.5t93 9.5t82.5 4t70.5 0.5h68v34q0 306 -281 306q-50 0 -98.5 -10t-82 -24.5t-60 -29.5t-39.5 -25l-13 -10l-49 70q5 5 14.5 12.5t43 27t70.5 34.5t96.5 27t121.5 12q178 0 270.5 -98t92.5 -289v-662h-86
v135q0 24 2 47t4 34l2 11h-4q2 0 -10 -26t-39.5 -63t-67 -74t-104 -63t-138.5 -26q-64 0 -124.5 18t-111.5 53t-81.5 93.5t-30.5 132.5zM186 279q0 -89 70 -156.5t193 -67.5q80 0 148 39t111 102t67 139.5t24 153.5v56h-66q-41 0 -65.5 -0.5t-73 -2.5t-81 -6.5t-79.5 -14
t-78 -22t-66 -33t-55.5 -46.5t-34.5 -62t-14 -79zM227 1212q0 222 170 222q38 0 69.5 -15.5t53.5 -38t41.5 -45t43.5 -38t50 -15.5q25 0 43 15.5t25.5 40.5t10.5 46t3 43h82q0 -221 -170 -221q-38 0 -69.5 15.5t-53.5 38t-41.5 45t-43.5 38t-50 15.5q-33 0 -53 -28.5
t-24.5 -57.5t-4.5 -60h-82z" />
    <glyph glyph-name="adieresis" unicode="&#xe4;" horiz-adv-x="1050" 
d="M96 272q0 56 16.5 103.5t42 81.5t66 61t79.5 44.5t92 30t93 18.5t93 9.5t82.5 4t70.5 0.5h68v34q0 306 -281 306q-50 0 -98.5 -10t-82 -24.5t-60 -29.5t-39.5 -25l-13 -10l-49 70q5 5 14.5 12.5t43 27t70.5 34.5t96.5 27t121.5 12q178 0 270.5 -98t92.5 -289v-662h-86
v135q0 24 2 47t4 34l2 11h-4q2 0 -10 -26t-39.5 -63t-67 -74t-104 -63t-138.5 -26q-64 0 -124.5 18t-111.5 53t-81.5 93.5t-30.5 132.5zM186 279q0 -89 70 -156.5t193 -67.5q80 0 148 39t111 102t67 139.5t24 153.5v56h-66q-41 0 -65.5 -0.5t-73 -2.5t-81 -6.5t-79.5 -14
t-78 -22t-66 -33t-55.5 -46.5t-34.5 -62t-14 -79zM616 1284v150h95v-150h-95zM336 1284v150h94v-150h-94z" />
    <glyph glyph-name="aring" unicode="&#xe5;" horiz-adv-x="1050" 
d="M96 272q0 56 16.5 103.5t42 81.5t66 61t79.5 44.5t92 30t93 18.5t93 9.5t82.5 4t70.5 0.5h68v34q0 306 -281 306q-50 0 -98.5 -10t-82 -24.5t-60 -29.5t-39.5 -25l-13 -10l-49 70q5 5 14.5 12.5t43 27t70.5 34.5t96.5 27t121.5 12q178 0 270.5 -98t92.5 -289v-662h-86
v135q0 24 2 47t4 34l2 11h-4q2 0 -10 -26t-39.5 -63t-67 -74t-104 -63t-138.5 -26q-64 0 -124.5 18t-111.5 53t-81.5 93.5t-30.5 132.5zM186 279q0 -89 70 -156.5t193 -67.5q80 0 148 39t111 102t67 139.5t24 153.5v56h-66q-41 0 -65.5 -0.5t-73 -2.5t-81 -6.5t-79.5 -14
t-78 -22t-66 -33t-55.5 -46.5t-34.5 -62t-14 -79zM522 1186q-58 0 -97.5 39t-39.5 98t39.5 98t97.5 39t97.5 -39t39.5 -98t-39.5 -98t-97.5 -39zM522 1257q29 0 47.5 18.5t18.5 47.5q0 31 -18.5 49.5t-47.5 18.5t-47 -18.5t-18 -49.5q0 -29 18 -47.5t47 -18.5z" />
    <glyph glyph-name="ae" unicode="&#xe6;" horiz-adv-x="1798" 
d="M98 272q0 55 14 100.5t35.5 78.5t57.5 59t70 43t84 29t88.5 18t94 9.5t89.5 4t86 0.5h82v45q0 306 -289 306q-48 0 -95 -10t-80 -24.5t-59 -29.5t-38 -25l-13 -10l-49 70q5 5 14.5 12.5t42 27t69 34.5t94 27t118.5 12q293 0 352 -240h4q62 118 167.5 179t238.5 61
q99 0 179 -36.5t130.5 -100t77.5 -145.5t27 -175l-4 -57h-801q0 -224 116.5 -350t301.5 -126q55 0 108 13.5t89 32.5t64.5 37.5t41.5 31.5l14 14l47 -71q-6 -6 -17 -15.5t-47.5 -34t-76 -43t-100.5 -34t-123 -15.5q-160 0 -283 83.5t-178 230.5h-4q-5 -23 -17.5 -54.5
t-43.5 -79t-71.5 -86t-108 -66.5t-146.5 -28q-96 0 -174.5 32.5t-128.5 101t-50 163.5zM893 614h706q-4 90 -32.5 160t-75 111t-102.5 61.5t-119 20.5q-146 0 -249 -91t-128 -262zM188 279q0 -92 70 -158t193 -66q80 0 147.5 39t110.5 102t66.5 139.5t23.5 153.5v46h-142
q-49 0 -86 -1.5t-88.5 -7t-89.5 -16t-79 -29.5t-66.5 -45.5t-42.5 -66.5t-17 -90z" />
    <glyph glyph-name="ccedilla" unicode="&#xe7;" horiz-adv-x="1130" 
d="M111 510q0 119 42.5 221t114.5 171t168.5 108t202.5 39q68 0 131 -15t104 -36.5t72.5 -43t45.5 -36.5l14 -15l-54 -69l-14 14t-39.5 31.5t-64.5 40t-87 31.5t-108 14q-185 0 -311.5 -126.5t-126.5 -328.5q0 -200 127 -325.5t311 -125.5q63 0 121.5 15t97 37t67.5 44
t43 37l13 15l45 -72q-5 -6 -15.5 -16.5t-46.5 -38t-76 -48.5t-105 -38.5t-134 -18.5l-18 -98q64 -9 102.5 -46.5t38.5 -92.5q0 -79 -53 -117.5t-133 -38.5q-24 0 -46.5 2t-33.5 4l-10 2v78q37 -10 84 -10q110 0 110 76q0 36 -33 57t-92 21l-24 -2l37 170
q-202 21 -334.5 164.5t-132.5 365.5z" />
    <glyph glyph-name="egrave" unicode="&#xe8;" horiz-adv-x="1132" 
d="M109 510q0 126 40.5 229.5t109.5 170.5t158.5 103t188.5 36q101 0 182.5 -38t132 -103t77 -148t26.5 -178l-4 -56h-821q0 -215 126 -341t312 -126q55 0 108 13.5t89 32.5t64.5 37.5t41.5 31.5l14 14l47 -71q-6 -6 -17 -15.5t-47.5 -34t-76 -43t-100.5 -34t-123 -15.5
q-145 0 -264.5 65t-191.5 188t-72 282zM205 606h729q-7 178 -100 270.5t-230 92.5q-148 0 -260 -95t-139 -268zM567 1206l-161 228h114l137 -228h-90z" />
    <glyph glyph-name="eacute" unicode="&#xe9;" horiz-adv-x="1132" 
d="M109 510q0 126 40.5 229.5t109.5 170.5t158.5 103t188.5 36q101 0 182.5 -38t132 -103t77 -148t26.5 -178l-4 -56h-821q0 -215 126 -341t312 -126q55 0 108 13.5t89 32.5t64.5 37.5t41.5 31.5l14 14l47 -71q-6 -6 -17 -15.5t-47.5 -34t-76 -43t-100.5 -34t-123 -15.5
q-145 0 -264.5 65t-191.5 188t-72 282zM205 606h729q-7 178 -100 270.5t-230 92.5q-148 0 -260 -95t-139 -268zM563 1206l137 228h115l-162 -228h-90z" />
    <glyph glyph-name="ecircumflex" unicode="&#xea;" horiz-adv-x="1132" 
d="M109 510q0 126 40.5 229.5t109.5 170.5t158.5 103t188.5 36q101 0 182.5 -38t132 -103t77 -148t26.5 -178l-4 -56h-821q0 -215 126 -341t312 -126q55 0 108 13.5t89 32.5t64.5 37.5t41.5 31.5l14 14l47 -71q-6 -6 -17 -15.5t-47.5 -34t-76 -43t-100.5 -34t-123 -15.5
q-145 0 -264.5 65t-191.5 188t-72 282zM205 606h729q-7 178 -100 270.5t-230 92.5q-148 0 -260 -95t-139 -268zM393 1206l164 228h107l163 -228h-100l-115 164h-4l-114 -164h-101z" />
    <glyph glyph-name="edieresis" unicode="&#xeb;" horiz-adv-x="1132" 
d="M109 510q0 126 40.5 229.5t109.5 170.5t158.5 103t188.5 36q101 0 182.5 -38t132 -103t77 -148t26.5 -178l-4 -56h-821q0 -215 126 -341t312 -126q55 0 108 13.5t89 32.5t64.5 37.5t41.5 31.5l14 14l47 -71q-6 -6 -17 -15.5t-47.5 -34t-76 -43t-100.5 -34t-123 -15.5
q-145 0 -264.5 65t-191.5 188t-72 282zM205 606h729q-7 178 -100 270.5t-230 92.5q-148 0 -260 -95t-139 -268zM705 1284v150h94v-150h-94zM424 1284v150h94v-150h-94z" />
    <glyph glyph-name="igrave" unicode="&#xec;" horiz-adv-x="446" 
d="M180 0v1024h86v-1024h-86zM180 1206l-162 228h115l137 -228h-90z" />
    <glyph glyph-name="iacute" unicode="&#xed;" horiz-adv-x="446" 
d="M180 0v1024h86v-1024h-86zM178 1206l137 228h115l-162 -228h-90z" />
    <glyph glyph-name="icircumflex" unicode="&#xee;" horiz-adv-x="446" 
d="M180 0v1024h86v-1024h-86zM8 1206l164 228h107l163 -228h-100l-115 164h-4l-114 -164h-101z" />
    <glyph glyph-name="idieresis" unicode="&#xef;" horiz-adv-x="446" 
d="M180 0v1024h86v-1024h-86zM319 1284v150h95v-150h-95zM39 1284v150h94v-150h-94z" />
    <glyph glyph-name="eth" unicode="&#xf0;" horiz-adv-x="1206" 
d="M113 471q0 75 19 145t59.5 132.5t98 109t139 73.5t177.5 27q63 0 120.5 -14t94.5 -34t64.5 -39.5t40.5 -33.5l12 -14h4q-74 231 -280 375l-353 -164l-35 76l299 139q-136 72 -313 117l25 78q233 -60 385 -152l252 119l34 -76l-206 -96q146 -111 232.5 -283t86.5 -403
q0 -84 -18 -165t-58 -156t-96.5 -132t-140 -91t-183.5 -34q-107 0 -196 42.5t-145.5 113t-87.5 158.5t-31 182zM203 471q0 -107 43 -200t130.5 -153.5t201.5 -60.5q81 0 149 29.5t114 77.5t77.5 111.5t46 130t14.5 133.5q0 148 -104 243t-271 95q-99 0 -177.5 -35t-126 -93
t-72.5 -129.5t-25 -148.5z" />
    <glyph glyph-name="ntilde" unicode="&#xf1;" horiz-adv-x="1200" 
d="M180 0v1024h86v-180q0 -21 -2 -42t-4 -32l-2 -10h4q12 32 34 67.5t60.5 75.5t86 72t114 53t139.5 21q97 0 164.5 -27.5t104.5 -82.5t53 -124.5t16 -165.5v-649h-86v618q0 61 -4 105t-19 93t-41 79t-74 50t-114 20q-144 0 -259.5 -91.5t-153.5 -234.5q-17 -61 -17 -139
v-500h-86zM336 1212q0 222 170 222q38 0 69.5 -15.5t53.5 -38t41.5 -45t43.5 -38t50 -15.5q25 0 43 15.5t25.5 40.5t10.5 46t3 43h82q0 -221 -170 -221q-38 0 -69.5 15.5t-53.5 38t-41.5 45t-43.5 38t-50 15.5q-33 0 -53 -28.5t-24.5 -57.5t-4.5 -60h-82z" />
    <glyph glyph-name="ograve" unicode="&#xf2;" horiz-adv-x="1269" 
d="M104 518q0 147 71 269t193 192t267 70t266.5 -70t192.5 -192t71 -269q0 -150 -71 -275t-192.5 -196.5t-266.5 -71.5q-108 0 -206 42.5t-169.5 114.5t-113.5 173t-42 213zM195 518q0 -194 128 -326.5t312 -132.5t312 132.5t128 326.5q0 189 -128 318t-312 129t-312 -129
t-128 -318zM590 1206l-162 228h115l137 -228h-90z" />
    <glyph glyph-name="oacute" unicode="&#xf3;" horiz-adv-x="1269" 
d="M104 518q0 147 71 269t193 192t267 70t266.5 -70t192.5 -192t71 -269q0 -150 -71 -275t-192.5 -196.5t-266.5 -71.5q-108 0 -206 42.5t-169.5 114.5t-113.5 173t-42 213zM195 518q0 -194 128 -326.5t312 -132.5t312 132.5t128 326.5q0 189 -128 318t-312 129t-312 -129
t-128 -318zM588 1206l137 228h115l-162 -228h-90z" />
    <glyph glyph-name="ocircumflex" unicode="&#xf4;" horiz-adv-x="1269" 
d="M104 518q0 147 71 269t193 192t267 70t266.5 -70t192.5 -192t71 -269q0 -150 -71 -275t-192.5 -196.5t-266.5 -71.5q-108 0 -206 42.5t-169.5 114.5t-113.5 173t-42 213zM195 518q0 -194 128 -326.5t312 -132.5t312 132.5t128 326.5q0 189 -128 318t-312 129t-312 -129
t-128 -318zM418 1206l164 228h106l164 -228h-100l-115 164h-4l-115 -164h-100z" />
    <glyph glyph-name="otilde" unicode="&#xf5;" horiz-adv-x="1269" 
d="M104 518q0 147 71 269t193 192t267 70t266.5 -70t192.5 -192t71 -269q0 -150 -71 -275t-192.5 -196.5t-266.5 -71.5q-108 0 -206 42.5t-169.5 114.5t-113.5 173t-42 213zM195 518q0 -194 128 -326.5t312 -132.5t312 132.5t128 326.5q0 189 -128 318t-312 129t-312 -129
t-128 -318zM340 1212q0 222 170 222q38 0 69.5 -15.5t53.5 -38t41.5 -45t43.5 -38t50 -15.5q25 0 43 15.5t25.5 40.5t10.5 46t3 43h82q0 -221 -170 -221q-38 0 -69.5 15.5t-53.5 38t-41.5 45t-43.5 38t-50 15.5q-33 0 -53 -28.5t-24.5 -57.5t-4.5 -60h-82z" />
    <glyph glyph-name="odieresis" unicode="&#xf6;" horiz-adv-x="1269" 
d="M104 518q0 147 71 269t193 192t267 70t266.5 -70t192.5 -192t71 -269q0 -150 -71 -275t-192.5 -196.5t-266.5 -71.5q-108 0 -206 42.5t-169.5 114.5t-113.5 173t-42 213zM195 518q0 -194 128 -326.5t312 -132.5t312 132.5t128 326.5q0 189 -128 318t-312 129t-312 -129
t-128 -318zM729 1284v150h94v-150h-94zM449 1284v150h94v-150h-94z" />
    <glyph glyph-name="divide" unicode="&#xf7;" horiz-adv-x="1355" 
d="M618 883v121h117v-121h-117zM190 539v82h975v-82h-975zM618 156v120h117v-120h-117z" />
    <glyph glyph-name="oslash" unicode="&#xf8;" horiz-adv-x="1273" 
d="M106 518q0 147 71 269t193 192t267 70q154 0 283 -80l77 108l70 -53l-78 -109q84 -74 131 -176.5t47 -220.5q0 -150 -71 -275t-192.5 -196.5t-266.5 -71.5q-147 0 -266 72l-76 -106l-70 53l74 104q-91 75 -142 184t-51 236zM197 518q0 -105 40 -195t111 -155l522 731
q-109 66 -233 66q-184 0 -312 -129t-128 -318zM1077 518q0 97 -36.5 181t-102.5 145l-518 -727q99 -58 217 -58q184 0 312 132.5t128 326.5z" />
    <glyph glyph-name="ugrave" unicode="&#xf9;" horiz-adv-x="1189" 
d="M166 375v649h86v-618q0 -61 4 -105t19 -93t41 -79t74 -50t114 -20q124 0 221.5 66.5t148 172t50.5 226.5v500h86v-1024h-86v180q0 21 2 42t4 32l2 10h-4q-12 -32 -33.5 -67.5t-59.5 -75.5t-84 -72t-111 -53t-136 -21q-183 0 -260.5 98.5t-77.5 301.5zM545 1206l-162 228
h115l137 -228h-90z" />
    <glyph glyph-name="uacute" unicode="&#xfa;" horiz-adv-x="1189" 
d="M166 375v649h86v-618q0 -61 4 -105t19 -93t41 -79t74 -50t114 -20q124 0 221.5 66.5t148 172t50.5 226.5v500h86v-1024h-86v180q0 21 2 42t4 32l2 10h-4q-12 -32 -33.5 -67.5t-59.5 -75.5t-84 -72t-111 -53t-136 -21q-183 0 -260.5 98.5t-77.5 301.5zM541 1206l137 228
h115l-162 -228h-90z" />
    <glyph glyph-name="ucircumflex" unicode="&#xfb;" horiz-adv-x="1189" 
d="M166 375v649h86v-618q0 -61 4 -105t19 -93t41 -79t74 -50t114 -20q124 0 221.5 66.5t148 172t50.5 226.5v500h86v-1024h-86v180q0 21 2 42t4 32l2 10h-4q-12 -32 -33.5 -67.5t-59.5 -75.5t-84 -72t-111 -53t-136 -21q-183 0 -260.5 98.5t-77.5 301.5zM371 1206l164 228
h106l164 -228h-100l-115 164h-4l-115 -164h-100z" />
    <glyph glyph-name="udieresis" unicode="&#xfc;" horiz-adv-x="1189" 
d="M166 375v649h86v-618q0 -61 4 -105t19 -93t41 -79t74 -50t114 -20q124 0 221.5 66.5t148 172t50.5 226.5v500h86v-1024h-86v180q0 21 2 42t4 32l2 10h-4q-12 -32 -33.5 -67.5t-59.5 -75.5t-84 -72t-111 -53t-136 -21q-183 0 -260.5 98.5t-77.5 301.5zM682 1284v150h94
v-150h-94zM401 1284v150h95v-150h-95z" />
    <glyph glyph-name="yacute" unicode="&#xfd;" horiz-adv-x="1001" 
d="M16 -373l39 74q6 -5 17.5 -13.5t45 -22t64.5 -13.5q122 0 201 184l74 170l-424 1018h92l338 -817l37 -96h4q15 47 35 96l338 817h92l-527 -1264q-36 -85 -102 -137.5t-158 -52.5q-44 0 -85.5 14t-60.5 28zM455 1206l137 228h115l-162 -228h-90z" />
    <glyph glyph-name="thorn" unicode="&#xfe;" horiz-adv-x="1185" 
d="M180 -410v1844h86v-523l-2 -82h4q3 9 10 24t36.5 52.5t66.5 66.5t104.5 53t147.5 24q203 0 322.5 -148t119.5 -389q0 -242 -127 -389.5t-327 -147.5q-74 0 -138 23t-102.5 55.5t-65.5 65t-38 55.5l-11 23h-4q4 -38 4 -91v-516h-86zM264 510q0 -116 40.5 -218
t123.5 -168.5t193 -66.5q156 0 260 123t104 332q0 205 -99 329t-257 124q-73 0 -137 -26.5t-116 -79.5t-82 -143t-30 -206z" />
    <glyph glyph-name="ydieresis" unicode="&#xff;" horiz-adv-x="1001" 
d="M16 -373l39 74q6 -5 17.5 -13.5t45 -22t64.5 -13.5q122 0 201 184l74 170l-424 1018h92l338 -817l37 -96h4q15 47 35 96l338 817h92l-527 -1264q-36 -85 -102 -137.5t-158 -52.5q-44 0 -85.5 14t-60.5 28zM596 1284v150h94v-150h-94zM315 1284v150h95v-150h-95z" />
    <glyph glyph-name="Amacron" unicode="&#x100;" horiz-adv-x="1241" 
d="M1110 0l-186 496h-609l-184 -496h-94l536 1434h95l536 -1434h-94zM623 1331h-5q-30 -111 -53 -172l-219 -581h547l-217 581q-10 27 -23.5 70t-21.5 73zM377 1610v82h489v-82h-489z" />
    <glyph glyph-name="amacron" unicode="&#x101;" horiz-adv-x="1050" 
d="M96 272q0 56 16.5 103.5t42 81.5t66 61t79.5 44.5t92 30t93 18.5t93 9.5t82.5 4t70.5 0.5h68v34q0 306 -281 306q-50 0 -98.5 -10t-82 -24.5t-60 -29.5t-39.5 -25l-13 -10l-49 70q5 5 14.5 12.5t43 27t70.5 34.5t96.5 27t121.5 12q178 0 270.5 -98t92.5 -289v-662h-86
v135q0 24 2 47t4 34l2 11h-4q2 0 -10 -26t-39.5 -63t-67 -74t-104 -63t-138.5 -26q-64 0 -124.5 18t-111.5 53t-81.5 93.5t-30.5 132.5zM186 279q0 -89 70 -156.5t193 -67.5q80 0 148 39t111 102t67 139.5t24 153.5v56h-66q-41 0 -65.5 -0.5t-73 -2.5t-81 -6.5t-79.5 -14
t-78 -22t-66 -33t-55.5 -46.5t-34.5 -62t-14 -79zM279 1280v82h489v-82h-489z" />
    <glyph glyph-name="Abreve" unicode="&#x102;" horiz-adv-x="1241" 
d="M1110 0l-186 496h-609l-184 -496h-94l536 1434h95l536 -1434h-94zM623 1331h-5q-30 -111 -53 -172l-219 -581h547l-217 581q-10 27 -23.5 70t-21.5 73zM621 1530q-85 0 -146 52.5t-61 148.5v32h82v-28q0 -64 35 -95.5t90 -31.5q54 0 89 32t35 97v26h82v-32
q0 -96 -61 -148.5t-145 -52.5z" />
    <glyph glyph-name="abreve" unicode="&#x103;" horiz-adv-x="1050" 
d="M96 272q0 56 16.5 103.5t42 81.5t66 61t79.5 44.5t92 30t93 18.5t93 9.5t82.5 4t70.5 0.5h68v34q0 306 -281 306q-50 0 -98.5 -10t-82 -24.5t-60 -29.5t-39.5 -25l-13 -10l-49 70q5 5 14.5 12.5t43 27t70.5 34.5t96.5 27t121.5 12q178 0 270.5 -98t92.5 -289v-662h-86
v135q0 24 2 47t4 34l2 11h-4q2 0 -10 -26t-39.5 -63t-67 -74t-104 -63t-138.5 -26q-64 0 -124.5 18t-111.5 53t-81.5 93.5t-30.5 132.5zM186 279q0 -89 70 -156.5t193 -67.5q80 0 148 39t111 102t67 139.5t24 153.5v56h-66q-41 0 -65.5 -0.5t-73 -2.5t-81 -6.5t-79.5 -14
t-78 -22t-66 -33t-55.5 -46.5t-34.5 -62t-14 -79zM522 1200q-85 0 -146 52.5t-61 148.5v33h82v-29q0 -64 35 -95.5t90 -31.5q54 0 89.5 32t35.5 97v27h82v-33q0 -96 -61 -148.5t-146 -52.5z" />
    <glyph glyph-name="Aogonek" unicode="&#x104;" horiz-adv-x="1241" 
d="M948 -231q0 42 18 83.5t46.5 72.5t50.5 50t43 33l-182 488h-609l-184 -496h-94l536 1434h95l536 -1434q-164 -122 -164 -223q0 -29 14.5 -51t35 -33.5t41 -19t35.5 -9.5l14 -2l-19 -80q-9 1 -23 2.5t-51 13.5t-65 30t-51 55t-23 86zM623 1331h-5q-30 -111 -53 -172
l-219 -581h547l-217 581q-10 27 -23.5 70t-21.5 73z" />
    <glyph glyph-name="aogonek" unicode="&#x105;" horiz-adv-x="1050" 
d="M96 272q0 56 16.5 103.5t42 81.5t66 61t79.5 44.5t92 30t93 18.5t93 9.5t82.5 4t70.5 0.5h68v34q0 306 -281 306q-50 0 -98.5 -10t-82 -24.5t-60 -29.5t-39.5 -25l-13 -10l-49 70q5 5 14.5 12.5t43 27t70.5 34.5t96.5 27t121.5 12q178 0 270.5 -98t92.5 -289v-662
q-164 -122 -164 -223q0 -29 14.5 -51t34.5 -33.5t40.5 -19t35.5 -9.5l14 -2l-18 -80q-9 1 -23 2.5t-51 13.5t-65 30t-51 55t-23 86t24 96.5t57.5 79t56 49t32.5 22.5v109l4 92h-4q2 0 -10 -25t-38.5 -60.5t-65.5 -71t-103 -60.5t-138 -25q-64 0 -124.5 18t-111.5 53
t-81.5 93.5t-30.5 132.5zM186 279q0 -89 70 -156.5t193 -67.5q80 0 148 39t111 102t67 139.5t24 153.5v56h-66q-41 0 -65.5 -0.5t-73 -2.5t-81 -6.5t-79.5 -14t-78 -22t-66 -33t-55.5 -46.5t-34.5 -62t-14 -79z" />
    <glyph glyph-name="Cacute" unicode="&#x106;" horiz-adv-x="1503" 
d="M125 727q0 205 93 372.5t256 263t362 95.5q95 0 183 -18.5t145 -45t100.5 -53t63.5 -45.5l20 -18l-54 -66q-7 7 -20 17.5t-57.5 38.5t-94 49.5t-127 39t-157.5 17.5q-130 0 -245 -49.5t-197.5 -134.5t-130.5 -205.5t-48 -257.5q0 -184 81 -337t225 -242t321 -89
q86 0 167.5 20t136.5 48.5t98 57.5t63 49l20 20l55 -61q-8 -9 -23 -23.5t-67 -52t-110 -66.5t-150.5 -52.5t-189.5 -23.5q-154 0 -288.5 59.5t-228.5 160.5t-148 239.5t-54 292.5zM778 1536l137 227h115l-162 -227h-90z" />
    <glyph glyph-name="cacute" unicode="&#x107;" horiz-adv-x="1128" 
d="M109 510q0 119 42.5 221t114.5 171t168.5 108t202.5 39q68 0 131 -15t104 -36.5t72.5 -43t45.5 -36.5l14 -15l-54 -69l-14 14t-39.5 31.5t-64.5 40t-87 31.5t-108 14q-185 0 -311.5 -126.5t-126.5 -328.5q0 -200 127 -325.5t311 -125.5q63 0 121.5 15t97 37t67.5 44
t43 37l13 15l45 -72q-5 -7 -15.5 -17.5t-47.5 -38t-78 -48.5t-108 -38.5t-138 -17.5q-145 0 -264.5 65t-191.5 188t-72 282zM553 1206l137 228h115l-162 -228h-90z" />
    <glyph glyph-name="Ccircumflex" unicode="&#x108;" horiz-adv-x="1503" 
d="M125 727q0 205 93 372.5t256 263t362 95.5q95 0 183 -18.5t145 -45t100.5 -53t63.5 -45.5l20 -18l-54 -66q-7 7 -20 17.5t-57.5 38.5t-94 49.5t-127 39t-157.5 17.5q-130 0 -245 -49.5t-197.5 -134.5t-130.5 -205.5t-48 -257.5q0 -184 81 -337t225 -242t321 -89
q86 0 167.5 20t136.5 48.5t98 57.5t63 49l20 20l55 -61q-8 -9 -23 -23.5t-67 -52t-110 -66.5t-150.5 -52.5t-189.5 -23.5q-154 0 -288.5 59.5t-228.5 160.5t-148 239.5t-54 292.5zM608 1536l164 227h107l163 -227h-100l-115 164h-4l-114 -164h-101z" />
    <glyph glyph-name="ccircumflex" unicode="&#x109;" horiz-adv-x="1128" 
d="M109 510q0 119 42.5 221t114.5 171t168.5 108t202.5 39q68 0 131 -15t104 -36.5t72.5 -43t45.5 -36.5l14 -15l-54 -69l-14 14t-39.5 31.5t-64.5 40t-87 31.5t-108 14q-185 0 -311.5 -126.5t-126.5 -328.5q0 -200 127 -325.5t311 -125.5q63 0 121.5 15t97 37t67.5 44
t43 37l13 15l45 -72q-5 -7 -15.5 -17.5t-47.5 -38t-78 -48.5t-108 -38.5t-138 -17.5q-145 0 -264.5 65t-191.5 188t-72 282zM383 1206l164 228h106l164 -228h-100l-115 164h-4l-115 -164h-100z" />
    <glyph glyph-name="Cdotaccent" unicode="&#x10a;" horiz-adv-x="1503" 
d="M125 727q0 205 93 372.5t256 263t362 95.5q95 0 183 -18.5t145 -45t100.5 -53t63.5 -45.5l20 -18l-54 -66q-7 7 -20 17.5t-57.5 38.5t-94 49.5t-127 39t-157.5 17.5q-130 0 -245 -49.5t-197.5 -134.5t-130.5 -205.5t-48 -257.5q0 -184 81 -337t225 -242t321 -89
q86 0 167.5 20t136.5 48.5t98 57.5t63 49l20 20l55 -61q-8 -9 -23 -23.5t-67 -52t-110 -66.5t-150.5 -52.5t-189.5 -23.5q-154 0 -288.5 59.5t-228.5 160.5t-148 239.5t-54 292.5zM778 1614v149h94v-149h-94z" />
    <glyph glyph-name="cdotaccent" unicode="&#x10b;" horiz-adv-x="1128" 
d="M109 510q0 119 42.5 221t114.5 171t168.5 108t202.5 39q68 0 131 -15t104 -36.5t72.5 -43t45.5 -36.5l14 -15l-54 -69l-14 14t-39.5 31.5t-64.5 40t-87 31.5t-108 14q-185 0 -311.5 -126.5t-126.5 -328.5q0 -200 127 -325.5t311 -125.5q63 0 121.5 15t97 37t67.5 44
t43 37l13 15l45 -72q-5 -7 -15.5 -17.5t-47.5 -38t-78 -48.5t-108 -38.5t-138 -17.5q-145 0 -264.5 65t-191.5 188t-72 282zM553 1284v150h94v-150h-94z" />
    <glyph glyph-name="Ccaron" unicode="&#x10c;" horiz-adv-x="1503" 
d="M125 727q0 205 93 372.5t256 263t362 95.5q95 0 183 -18.5t145 -45t100.5 -53t63.5 -45.5l20 -18l-54 -66q-7 7 -20 17.5t-57.5 38.5t-94 49.5t-127 39t-157.5 17.5q-130 0 -245 -49.5t-197.5 -134.5t-130.5 -205.5t-48 -257.5q0 -184 81 -337t225 -242t321 -89
q86 0 167.5 20t136.5 48.5t98 57.5t63 49l20 20l55 -61q-8 -9 -23 -23.5t-67 -52t-110 -66.5t-150.5 -52.5t-189.5 -23.5q-154 0 -288.5 59.5t-228.5 160.5t-148 239.5t-54 292.5zM772 1536l-164 227h101l114 -164h4l115 164h100l-163 -227h-107z" />
    <glyph glyph-name="ccaron" unicode="&#x10d;" horiz-adv-x="1128" 
d="M109 510q0 119 42.5 221t114.5 171t168.5 108t202.5 39q68 0 131 -15t104 -36.5t72.5 -43t45.5 -36.5l14 -15l-54 -69l-14 14t-39.5 31.5t-64.5 40t-87 31.5t-108 14q-185 0 -311.5 -126.5t-126.5 -328.5q0 -200 127 -325.5t311 -125.5q63 0 121.5 15t97 37t67.5 44
t43 37l13 15l45 -72q-5 -7 -15.5 -17.5t-47.5 -38t-78 -48.5t-108 -38.5t-138 -17.5q-145 0 -264.5 65t-191.5 188t-72 282zM547 1206l-164 228h100l115 -164h4l115 164h100l-164 -228h-106z" />
    <glyph glyph-name="Dcaron" unicode="&#x10e;" horiz-adv-x="1517" 
d="M221 0v1434h451q324 0 519 -190.5t195 -526.5q0 -225 -90 -388t-250 -246t-374 -83h-451zM309 82h348q292 0 464.5 166t172.5 469q0 302 -173 468.5t-464 166.5h-348v-1270zM647 1536l-164 227h101l114 -164h4l115 164h101l-164 -227h-107z" />
    <glyph glyph-name="dcaron" unicode="&#x10f;" horiz-adv-x="1249" 
d="M113 512q0 242 127.5 389.5t330.5 147.5q72 0 135.5 -24t102 -58t66.5 -68t39 -58l12 -24h4q-8 37 -8 84v533h86v-1434h-86v129q0 21 2 40.5t4 28.5l2 9h-4q-4 -9 -11.5 -25t-38 -56t-68.5 -70.5t-106 -55.5t-147 -25q-203 0 -322.5 148t-119.5 389zM203 512
q0 -205 99 -329t257 -124q73 0 137 26.5t116 79.5t82 143t30 206q0 118 -38 218t-121 166.5t-198 66.5q-156 0 -260 -122t-104 -331zM1145 1434h98q12 -53 12 -97q0 -76 -45 -178h-80q37 95 37 160q0 56 -22 115z" />
    <glyph glyph-name="Dcroat" unicode="&#x110;" horiz-adv-x="1542" 
d="M123 682v82h123v670h450q325 0 520 -190.5t195 -526.5q0 -337 -195 -527t-520 -190h-450v682h-123zM334 82h348q292 0 464.5 166t172.5 469q0 302 -173 468.5t-464 166.5h-348v-588h375v-82h-375v-600z" />
    <glyph glyph-name="dcroat" unicode="&#x111;" horiz-adv-x="1187" 
d="M649 1165v82h273v187h86v-187h170v-82h-170v-1165h-86v119l4 78h-4q-3 -9 -10.5 -24t-37.5 -53.5t-67.5 -67.5t-105 -53t-146.5 -24q-203 0 -322.5 148t-119.5 389q0 242 127.5 389.5t330.5 147.5q72 0 135 -23t101 -55.5t65.5 -65t38.5 -55.5l11 -23h4q-4 37 -4 84v254
h-273zM203 512q0 -205 99 -329t257 -124q73 0 137 26.5t116 79.5t82 143t30 206q0 118 -38 218.5t-121 167.5t-198 67q-156 0 -260 -123t-104 -332z" />
    <glyph glyph-name="Emacron" unicode="&#x112;" horiz-adv-x="1169" 
d="M221 0v1434h785v-82h-697v-588h572v-82h-572v-600h735v-82h-823zM395 1610v82h490v-82h-490z" />
    <glyph glyph-name="emacron" unicode="&#x113;" horiz-adv-x="1132" 
d="M109 510q0 126 40.5 229.5t109.5 170.5t158.5 103t188.5 36q101 0 182.5 -38t132 -103t77 -148t26.5 -178l-4 -56h-821q0 -215 126 -341t312 -126q55 0 108 13.5t89 32.5t64.5 37.5t41.5 31.5l14 14l47 -71q-6 -6 -17 -15.5t-47.5 -34t-76 -43t-100.5 -34t-123 -15.5
q-145 0 -264.5 65t-191.5 188t-72 282zM205 606h729q-7 178 -100 270.5t-230 92.5q-148 0 -260 -95t-139 -268zM367 1280v82h489v-82h-489z" />
    <glyph glyph-name="Ebreve" unicode="&#x114;" horiz-adv-x="1169" 
d="M221 0v1434h785v-82h-697v-588h572v-82h-572v-600h735v-82h-823zM639 1530q-85 0 -146 52.5t-61 148.5v32h82v-28q0 -64 35 -95.5t90 -31.5q54 0 89.5 32t35.5 97v26h82v-32q0 -96 -61 -148.5t-146 -52.5z" />
    <glyph glyph-name="ebreve" unicode="&#x115;" horiz-adv-x="1132" 
d="M109 510q0 126 40.5 229.5t109.5 170.5t158.5 103t188.5 36q101 0 182.5 -38t132 -103t77 -148t26.5 -178l-4 -56h-821q0 -215 126 -341t312 -126q55 0 108 13.5t89 32.5t64.5 37.5t41.5 31.5l14 14l47 -71q-6 -6 -17 -15.5t-47.5 -34t-76 -43t-100.5 -34t-123 -15.5
q-145 0 -264.5 65t-191.5 188t-72 282zM205 606h729q-7 178 -100 270.5t-230 92.5q-148 0 -260 -95t-139 -268zM610 1200q-85 0 -146 52.5t-61 148.5v33h82v-29q0 -64 35 -95.5t90 -31.5q54 0 89.5 32t35.5 97v27h82v-33q0 -96 -61 -148.5t-146 -52.5z" />
    <glyph glyph-name="Edotaccent" unicode="&#x116;" horiz-adv-x="1169" 
d="M221 0v1434h785v-82h-697v-588h572v-82h-572v-600h735v-82h-823zM592 1614v149h94v-149h-94z" />
    <glyph glyph-name="edotaccent" unicode="&#x117;" horiz-adv-x="1132" 
d="M109 510q0 126 40.5 229.5t109.5 170.5t158.5 103t188.5 36q101 0 182.5 -38t132 -103t77 -148t26.5 -178l-4 -56h-821q0 -215 126 -341t312 -126q55 0 108 13.5t89 32.5t64.5 37.5t41.5 31.5l14 14l47 -71q-6 -6 -17 -15.5t-47.5 -34t-76 -43t-100.5 -34t-123 -15.5
q-145 0 -264.5 65t-191.5 188t-72 282zM205 606h729q-7 178 -100 270.5t-230 92.5q-148 0 -260 -95t-139 -268zM563 1284v150h94v-150h-94z" />
    <glyph glyph-name="Eogonek" unicode="&#x118;" horiz-adv-x="1169" 
d="M221 0v1434h785v-82h-697v-588h572v-82h-572v-600h735v-82q-163 -121 -163 -223q0 -29 14.5 -51t34.5 -33.5t40.5 -19t35.5 -9.5l14 -2l-19 -80q-9 1 -23 2.5t-51 13.5t-65 30t-51 55t-23 86q0 117 146 227v4h-713z" />
    <glyph glyph-name="eogonek" unicode="&#x119;" horiz-adv-x="1134" 
d="M109 510q0 126 40.5 229.5t109.5 170.5t158.5 103t188.5 36q101 0 182.5 -38t132 -103t77 -148t26.5 -178l-4 -56h-821q0 -215 126 -341t312 -126q55 0 108 13.5t89 32.5t64.5 37.5t41.5 31.5l14 14l47 -71q-22 -21 -66.5 -53t-84 -61t-78.5 -64.5t-62.5 -77t-23.5 -84.5
q0 -29 14.5 -51t35 -33.5t40.5 -19t34 -9.5l15 -2l-18 -80q-9 1 -23 2.5t-51 13.5t-65 30t-51 55t-23 86q0 104 108 208v5q-35 -7 -65 -7q-145 0 -264.5 65t-191.5 188t-72 282zM205 606h729q-7 178 -100 270.5t-230 92.5q-148 0 -260 -95t-139 -268z" />
    <glyph glyph-name="Ecaron" unicode="&#x11a;" horiz-adv-x="1169" 
d="M221 0v1434h785v-82h-697v-588h572v-82h-572v-600h735v-82h-823zM586 1536l-164 227h100l115 -164h4l115 164h100l-164 -227h-106z" />
    <glyph glyph-name="ecaron" unicode="&#x11b;" horiz-adv-x="1132" 
d="M109 510q0 126 40.5 229.5t109.5 170.5t158.5 103t188.5 36q101 0 182.5 -38t132 -103t77 -148t26.5 -178l-4 -56h-821q0 -215 126 -341t312 -126q55 0 108 13.5t89 32.5t64.5 37.5t41.5 31.5l14 14l47 -71q-6 -6 -17 -15.5t-47.5 -34t-76 -43t-100.5 -34t-123 -15.5
q-145 0 -264.5 65t-191.5 188t-72 282zM205 606h729q-7 178 -100 270.5t-230 92.5q-148 0 -260 -95t-139 -268zM557 1206l-164 228h101l114 -164h4l115 164h100l-163 -228h-107z" />
    <glyph glyph-name="Gcircumflex" unicode="&#x11c;" horiz-adv-x="1550" 
d="M125 717q0 204 93.5 374t257.5 268.5t364 98.5q91 0 175.5 -16.5t141 -40.5t99.5 -48t63 -41l20 -16l-53 -67q-7 6 -20 15.5t-57.5 34.5t-93 44.5t-123.5 35t-152 15.5q-177 0 -320 -86.5t-223 -236.5t-80 -334q0 -185 78 -335t218 -236.5t314 -86.5q86 0 168.5 24.5
t138.5 59t99.5 69t64.5 58.5l21 25v276h-256v82h344v-653h-88v125l2 61h-4q-7 -9 -20.5 -23t-60.5 -50.5t-99.5 -64t-136.5 -50.5t-173 -23q-147 0 -277.5 58t-223.5 157t-147 236t-54 291zM600 1536l164 227h106l164 -227h-100l-115 164h-4l-115 -164h-100z" />
    <glyph glyph-name="gcircumflex" unicode="&#x11d;" horiz-adv-x="1173" 
d="M244 -274q14 -8 39.5 -20t97.5 -32t137 -20q175 0 282 87.5t107 264.5v119q0 21 2 42t4 31l2 11h-4q-48 -98 -134.5 -153.5t-209.5 -55.5q-201 0 -327.5 145t-126.5 383q0 239 120 380t320 141q81 0 148 -20.5t104 -50.5t62 -59.5t33 -50.5l9 -20h4q-6 14 -6 39v137h86
v-1018q0 -113 -38.5 -199.5t-105 -136.5t-148.5 -75t-177 -25q-164 0 -321 80zM573 84q71 0 129 23.5t106 73.5t74.5 138.5t26.5 208.5q0 437 -356 437q-165 0 -257.5 -115t-92.5 -322q0 -205 102 -324.5t268 -119.5zM356 1206l164 228h107l164 -228h-101l-115 164h-4
l-114 -164h-101z" />
    <glyph glyph-name="Gbreve" unicode="&#x11e;" horiz-adv-x="1550" 
d="M125 717q0 204 93.5 374t257.5 268.5t364 98.5q91 0 175.5 -16.5t141 -40.5t99.5 -48t63 -41l20 -16l-53 -67q-7 6 -20 15.5t-57.5 34.5t-93 44.5t-123.5 35t-152 15.5q-177 0 -320 -86.5t-223 -236.5t-80 -334q0 -185 78 -335t218 -236.5t314 -86.5q86 0 168.5 24.5
t138.5 59t99.5 69t64.5 58.5l21 25v276h-256v82h344v-653h-88v125l2 61h-4q-7 -9 -20.5 -23t-60.5 -50.5t-99.5 -64t-136.5 -50.5t-173 -23q-147 0 -277.5 58t-223.5 157t-147 236t-54 291zM817 1530q-85 0 -146 52.5t-61 148.5v32h82v-28q0 -64 35 -95.5t90 -31.5
q54 0 89.5 32t35.5 97v26h82v-32q0 -96 -61 -148.5t-146 -52.5z" />
    <glyph glyph-name="gbreve" unicode="&#x11f;" horiz-adv-x="1173" 
d="M244 -274q14 -8 39.5 -20t97.5 -32t137 -20q175 0 282 87.5t107 264.5v119q0 21 2 42t4 31l2 11h-4q-48 -98 -134.5 -153.5t-209.5 -55.5q-201 0 -327.5 145t-126.5 383q0 239 120 380t320 141q81 0 148 -20.5t104 -50.5t62 -59.5t33 -50.5l9 -20h4q-6 14 -6 39v137h86
v-1018q0 -113 -38.5 -199.5t-105 -136.5t-148.5 -75t-177 -25q-164 0 -321 80zM573 84q71 0 129 23.5t106 73.5t74.5 138.5t26.5 208.5q0 437 -356 437q-165 0 -257.5 -115t-92.5 -322q0 -205 102 -324.5t268 -119.5zM573 1200q-84 0 -145 52.5t-61 148.5v33h82v-29
q0 -64 34.5 -95.5t89.5 -31.5q54 0 89.5 32t35.5 97v27h82v-33q0 -96 -61 -148.5t-146 -52.5z" />
    <glyph glyph-name="Gdotaccent" unicode="&#x120;" horiz-adv-x="1550" 
d="M125 717q0 204 93.5 374t257.5 268.5t364 98.5q91 0 175.5 -16.5t141 -40.5t99.5 -48t63 -41l20 -16l-53 -67q-7 6 -20 15.5t-57.5 34.5t-93 44.5t-123.5 35t-152 15.5q-177 0 -320 -86.5t-223 -236.5t-80 -334q0 -185 78 -335t218 -236.5t314 -86.5q86 0 168.5 24.5
t138.5 59t99.5 69t64.5 58.5l21 25v276h-256v82h344v-653h-88v125l2 61h-4q-7 -9 -20.5 -23t-60.5 -50.5t-99.5 -64t-136.5 -50.5t-173 -23q-147 0 -277.5 58t-223.5 157t-147 236t-54 291zM770 1614v149h94v-149h-94z" />
    <glyph glyph-name="gdotaccent" unicode="&#x121;" horiz-adv-x="1173" 
d="M244 -274q14 -8 39.5 -20t97.5 -32t137 -20q175 0 282 87.5t107 264.5v119q0 21 2 42t4 31l2 11h-4q-48 -98 -134.5 -153.5t-209.5 -55.5q-201 0 -327.5 145t-126.5 383q0 239 120 380t320 141q81 0 148 -20.5t104 -50.5t62 -59.5t33 -50.5l9 -20h4q-6 14 -6 39v137h86
v-1018q0 -113 -38.5 -199.5t-105 -136.5t-148.5 -75t-177 -25q-164 0 -321 80zM573 84q71 0 129 23.5t106 73.5t74.5 138.5t26.5 208.5q0 437 -356 437q-165 0 -257.5 -115t-92.5 -322q0 -205 102 -324.5t268 -119.5zM526 1284v150h95v-150h-95z" />
    <glyph glyph-name="Gcommaaccent" unicode="&#x122;" horiz-adv-x="1550" 
d="M125 717q0 204 93.5 374t257.5 268.5t364 98.5q91 0 175.5 -16.5t141 -40.5t99.5 -48t63 -41l20 -16l-53 -67q-7 6 -20 15.5t-57.5 34.5t-93 44.5t-123.5 35t-152 15.5q-177 0 -320 -86.5t-223 -236.5t-80 -334q0 -185 78 -335t218 -236.5t314 -86.5q86 0 168.5 24.5
t138.5 59t99.5 69t64.5 58.5l21 25v276h-256v82h344v-653h-88v125l2 61h-4q-7 -9 -20.5 -23t-60.5 -50.5t-99.5 -64t-136.5 -50.5t-173 -23q-147 0 -277.5 58t-223.5 157t-147 236t-54 291zM778 -135h99q12 -53 12 -96q0 -77 -45 -179h-80q37 95 37 160q0 53 -23 115z" />
    <glyph glyph-name="gcommaaccent" unicode="&#x123;" horiz-adv-x="1173" 
d="M244 -274q14 -8 39.5 -20t97.5 -32t137 -20q175 0 282 87.5t107 264.5v119q0 21 2 42t4 31l2 11h-4q-48 -98 -134.5 -153.5t-209.5 -55.5q-201 0 -327.5 145t-126.5 383q0 239 120 380t320 141q81 0 148 -20.5t104 -50.5t62 -59.5t33 -50.5l9 -20h4q-6 14 -6 39v137h86
v-1018q0 -113 -38.5 -199.5t-105 -136.5t-148.5 -75t-177 -25q-164 0 -321 80zM573 84q71 0 129 23.5t106 73.5t74.5 138.5t26.5 208.5q0 437 -356 437q-165 0 -257.5 -115t-92.5 -322q0 -205 102 -324.5t268 -119.5zM627 1159h-99q-12 53 -12 96q0 77 45 179h80
q-37 -95 -37 -160q0 -53 23 -115z" />
    <glyph glyph-name="Hcircumflex" unicode="&#x124;" horiz-adv-x="1527" 
d="M221 0v1434h88v-674h910v674h88v-1434h-88v678h-910v-678h-88zM547 1536l164 227h106l164 -227h-100l-115 164h-4l-115 -164h-100z" />
    <glyph glyph-name="hcircumflex" unicode="&#x125;" horiz-adv-x="1200" 
d="M180 0v1434h86v-590q0 -21 -2 -42t-4 -32l-2 -10h4q12 32 34 67.5t60.5 75.5t86 72t114 53t139.5 21q97 0 164.5 -27.5t104.5 -82.5t53 -124.5t16 -165.5v-649h-86v618q0 61 -4 105t-19 93t-41 79t-74 50t-114 20q-144 0 -259.5 -91.5t-153.5 -234.5q-17 -61 -17 -139
v-500h-86zM8 1536l164 227h107l163 -227h-100l-115 164h-4l-114 -164h-101z" />
    <glyph glyph-name="Hbar" unicode="&#x126;" horiz-adv-x="1609" 
d="M262 0v1047h-133v81h133v306h88v-306h910v306h88v-306h133v-81h-133v-1047h-88v678h-910v-678h-88zM350 760h910v287h-910v-287z" />
    <glyph glyph-name="hbar" unicode="&#x127;" horiz-adv-x="1200" 
d="M14 1165v82h166v187h86v-187h273v-82h-273v-311l-4 -84h4q11 31 33 66t60 73.5t84.5 69t113 50.5t139.5 20q97 0 164.5 -27.5t104.5 -82.5t53 -124.5t16 -165.5v-649h-86v618q0 61 -4 105t-19 93t-41 79t-74 50t-114 20q-144 0 -259.5 -91.5t-153.5 -234.5
q-17 -61 -17 -139v-500h-86v1165h-166z" />
    <glyph glyph-name="Itilde" unicode="&#x128;" horiz-adv-x="530" 
d="M221 0v1434h88v-1434h-88zM-29 1542q0 221 170 221q38 0 69.5 -15.5t53.5 -37.5t41.5 -44.5t43.5 -38t50 -15.5q25 0 43 15.5t25.5 40.5t10.5 46t3 43h82q0 -221 -170 -221q-38 0 -69.5 15.5t-53.5 38t-41.5 45t-43.5 38t-50 15.5q-33 0 -53 -28.5t-24.5 -57.5t-4.5 -60
h-82z" />
    <glyph glyph-name="itilde" unicode="&#x129;" horiz-adv-x="446" 
d="M180 0v1024h86v-1024h-86zM-70 1212q0 222 170 222q38 0 69.5 -15.5t53.5 -38t41.5 -45t43.5 -38t50 -15.5q25 0 43 15.5t25.5 40.5t10.5 46t3 43h82q0 -221 -170 -221q-38 0 -69.5 15.5t-53.5 38t-41.5 45t-43.5 38t-50 15.5q-33 0 -53 -28.5t-24.5 -57.5t-4.5 -60h-82z
" />
    <glyph glyph-name="Imacron" unicode="&#x12a;" horiz-adv-x="530" 
d="M221 0v1434h88v-1434h-88zM23 1610v82h489v-82h-489z" />
    <glyph glyph-name="imacron" unicode="&#x12b;" horiz-adv-x="446" 
d="M180 0v1024h86v-1024h-86zM-18 1280v82h489v-82h-489z" />
    <glyph glyph-name="Ibreve" unicode="&#x12c;" horiz-adv-x="530" 
d="M221 0v1434h88v-1434h-88zM266 1530q-85 0 -146 52.5t-61 148.5v32h82v-28q0 -64 35 -95.5t90 -31.5q54 0 89.5 32t35.5 97v26h82v-32q0 -96 -61 -148.5t-146 -52.5z" />
    <glyph glyph-name="ibreve" unicode="&#x12d;" horiz-adv-x="446" 
d="M180 0v1024h86v-1024h-86zM225 1200q-85 0 -146 52.5t-61 148.5v33h82v-29q0 -64 35 -95.5t90 -31.5q54 0 89.5 32t35.5 97v27h82v-33q0 -96 -61 -148.5t-146 -52.5z" />
    <glyph glyph-name="Iogonek" unicode="&#x12e;" horiz-adv-x="530" 
d="M74 -231q0 47 20 93.5t48.5 78t48 49t30.5 24.5v1420h88v-1434q-20 -17 -41 -37.5t-46 -51t-40.5 -66t-15.5 -68.5q0 -29 14.5 -51t35 -33.5t40.5 -19t34 -9.5l15 -2l-18 -80q-9 1 -23 2.5t-51 13.5t-65 30t-51 55t-23 86z" />
    <glyph glyph-name="iogonek" unicode="&#x12f;" horiz-adv-x="446" 
d="M31 -231q0 49 21 96t50.5 79t49 49.5t28.5 22.5v1008h86v-1024q-20 -17 -41 -37.5t-46 -51t-40.5 -66t-15.5 -68.5q0 -29 14.5 -51t34.5 -33.5t40.5 -19t35.5 -9.5l14 -2l-18 -80q-9 1 -23 2.5t-51 13.5t-65 30t-51 55t-23 86zM172 1284v150h102v-150h-102z" />
    <glyph glyph-name="Idotaccent" unicode="&#x130;" horiz-adv-x="530" 
d="M221 0v1434h88v-1434h-88zM219 1614v149h94v-149h-94z" />
    <glyph glyph-name="dotlessi" unicode="&#x131;" horiz-adv-x="446" 
d="M180 0v1024h86v-1024h-86z" />
    <glyph glyph-name="IJ" unicode="&#x132;" horiz-adv-x="1140" 
d="M532 -10v86q48 0 87.5 7t84 30.5t74.5 62t50 108t20 162.5v988h88v-988q0 -456 -404 -456zM221 0v1434h88v-1434h-88z" />
    <glyph glyph-name="ij" unicode="&#x133;" horiz-adv-x="886" 
d="M172 1284v150h102v-150h-102zM180 0v1024h86v-1024h-86zM621 1024h86v-1065q0 -97 -24.5 -169.5t-59.5 -111t-83 -62t-84.5 -30t-74.5 -6.5l-51 4v80q18 -4 45 -4q30 0 58 5t63.5 24t62 49.5t44.5 87t18 131.5v1067zM612 1284v150h103v-150h-103z" />
    <glyph glyph-name="Jcircumflex" unicode="&#x134;" horiz-adv-x="1050" 
d="M80 391v45h88v-47q0 -132 57 -215q41 -58 104 -86.5t134 -28.5q56 0 106 17.5t94 54t69.5 103t25.5 155.5v963h-342v82h430v-1043q0 -110 -33 -193.5t-89.5 -130.5t-122 -69.5t-138.5 -22.5t-138.5 22.5t-122 69.5t-89.5 130.5t-33 193.5zM414 1536l164 227h106l164 -227
h-100l-115 164h-4l-115 -164h-100z" />
    <glyph glyph-name="jcircumflex" unicode="&#x135;" horiz-adv-x="446" 
d="M180 1024h86v-1065q0 -97 -24.5 -169.5t-59.5 -111t-82.5 -62t-84 -30t-74.5 -6.5l-52 4v80q18 -4 45 -4q30 0 58 5t63.5 24t62 49.5t44.5 87t18 131.5v1067zM-2 1206l164 228h106l164 -228h-100l-115 164h-4l-115 -164h-100z" />
    <glyph glyph-name="Kcommaaccent" unicode="&#x136;" horiz-adv-x="1187" 
d="M221 0v1434h88v-639h266l410 639h107l-441 -676v-4l469 -754h-106l-439 713h-266v-713h-88zM567 -135h99q12 -53 12 -96q0 -77 -45 -179h-80q37 95 37 160q0 53 -23 115z" />
    <glyph glyph-name="kcommaaccent" unicode="&#x137;" horiz-adv-x="983" 
d="M180 0v1434h86v-813h183l331 403h113l-371 -440v-4l406 -580h-109l-370 541h-183v-541h-86zM463 -135h98q12 -53 12 -96q0 -77 -45 -179h-79q36 92 36 160q0 56 -22 115z" />
    <glyph glyph-name="kgreenlandic" unicode="&#x138;" horiz-adv-x="989" 
d="M180 0v1024h86v-436h176l355 436h116l-391 -471v-4l385 -549h-112l-353 512h-176v-512h-86z" />
    <glyph glyph-name="Lacute" unicode="&#x139;" horiz-adv-x="1042" 
d="M221 0v1434h88v-1352h684v-82h-772zM219 1536l137 227h115l-162 -227h-90z" />
    <glyph glyph-name="lacute" unicode="&#x13a;" horiz-adv-x="471" 
d="M170 207v1227h86v-1201q0 -159 121 -159l31 2v-80q-19 -4 -37 -4q-22 0 -44 3.5t-52 17t-52 35.5t-37.5 63t-15.5 96zM170 1536l137 227h115l-162 -227h-90z" />
    <glyph glyph-name="Lcommaaccent" unicode="&#x13b;" horiz-adv-x="1042" 
d="M221 0v1434h88v-1352h684v-82h-772zM571 -135h99q12 -53 12 -96q0 -77 -45 -179h-80q37 95 37 160q0 53 -23 115z" />
    <glyph glyph-name="lcommaaccent" unicode="&#x13c;" horiz-adv-x="471" 
d="M170 207v1227h86v-1201q0 -159 121 -159l31 2v-80q-19 -4 -37 -4q-22 0 -44 3.5t-52 17t-52 35.5t-37.5 63t-15.5 96zM229 -135h99q12 -52 12 -96q0 -77 -45 -179h-80q37 95 37 160q0 53 -23 115z" />
    <glyph glyph-name="Lcaron" unicode="&#x13d;" horiz-adv-x="1042" 
d="M221 0v1434h88v-1352h684v-82h-772zM508 1434h98q12 -53 12 -97q0 -76 -45 -178h-79q36 92 36 160q0 56 -22 115z" />
    <glyph glyph-name="lcaron" unicode="&#x13e;" horiz-adv-x="532" 
d="M170 207v1227h86v-1201q0 -159 121 -159l31 2v-80q-19 -4 -37 -4q-22 0 -44 3.5t-52 17t-52 35.5t-37.5 63t-15.5 96zM395 1434h99q12 -53 12 -97q0 -76 -45 -178h-80q37 95 37 160q0 53 -23 115z" />
    <glyph glyph-name="Ldot" unicode="&#x13f;" horiz-adv-x="1042" 
d="M221 0v1434h88v-1352h684v-82h-772zM582 684v129h125v-129h-125z" />
    <glyph glyph-name="ldot" unicode="&#x140;" horiz-adv-x="540" 
d="M170 207v1227h86v-1201q0 -159 121 -159l31 2v-80q-19 -4 -37 -4q-22 0 -44 3.5t-52 17t-52 35.5t-37.5 63t-15.5 96zM389 684v129h125v-129h-125z" />
    <glyph glyph-name="Lslash" unicode="&#x141;" horiz-adv-x="1095" 
d="M141 682v96l133 76v580h88v-529l236 137v-98l-236 -135v-727h685v-82h-773v758z" />
    <glyph glyph-name="lslash" unicode="&#x142;" horiz-adv-x="600" 
d="M74 682v96l182 105v551h86v-500l188 108v-98l-188 -108v-603q0 -159 121 -159l31 2v-80q-19 -4 -37 -4q-22 0 -44 3.5t-52 17t-52 35.5t-37.5 63t-15.5 96v579z" />
    <glyph glyph-name="Nacute" unicode="&#x143;" horiz-adv-x="1540" 
d="M221 0v1434h82l817 -1125q21 -29 50 -74t48 -75l19 -31h4q-10 108 -10 180v1125h88v-1434h-82l-817 1124q-21 29 -50 74.5t-48 75.5l-19 31h-4q10 -109 10 -181v-1124h-88zM723 1536l137 227h115l-162 -227h-90z" />
    <glyph glyph-name="nacute" unicode="&#x144;" horiz-adv-x="1200" 
d="M180 0v1024h86v-180q0 -21 -2 -42t-4 -32l-2 -10h4q12 32 34 67.5t60.5 75.5t86 72t114 53t139.5 21q97 0 164.5 -27.5t104.5 -82.5t53 -124.5t16 -165.5v-649h-86v618q0 61 -4 105t-19 93t-41 79t-74 50t-114 20q-144 0 -259.5 -91.5t-153.5 -234.5q-17 -61 -17 -139
v-500h-86zM584 1206l137 228h115l-162 -228h-90z" />
    <glyph glyph-name="Ncommaaccent" unicode="&#x145;" horiz-adv-x="1540" 
d="M221 0v1434h82l817 -1125q21 -29 50 -74t48 -75l19 -31h4q-10 108 -10 180v1125h88v-1434h-82l-817 1124q-21 29 -50 74.5t-48 75.5l-19 31h-4q10 -109 10 -181v-1124h-88zM719 -135h98q12 -53 12 -96q0 -77 -45 -179h-79q36 92 36 160q0 56 -22 115z" />
    <glyph glyph-name="ncommaaccent" unicode="&#x146;" horiz-adv-x="1200" 
d="M180 0v1024h86v-180q0 -21 -2 -42t-4 -32l-2 -10h4q12 32 34 67.5t60.5 75.5t86 72t114 53t139.5 21q97 0 164.5 -27.5t104.5 -82.5t53 -124.5t16 -165.5v-649h-86v618q0 61 -4 105t-19 93t-41 79t-74 50t-114 20q-144 0 -259.5 -91.5t-153.5 -234.5q-17 -61 -17 -139
v-500h-86zM557 -135h98q13 -57 13 -96q0 -77 -45 -179h-80q37 95 37 160q0 53 -23 115z" />
    <glyph glyph-name="Ncaron" unicode="&#x147;" horiz-adv-x="1540" 
d="M221 0v1434h82l817 -1125q21 -29 50 -74t48 -75l19 -31h4q-10 108 -10 180v1125h88v-1434h-82l-817 1124q-21 29 -50 74.5t-48 75.5l-19 31h-4q10 -109 10 -181v-1124h-88zM717 1536l-164 227h100l115 -164h4l115 164h100l-164 -227h-106z" />
    <glyph glyph-name="ncaron" unicode="&#x148;" horiz-adv-x="1200" 
d="M180 0v1024h86v-180q0 -21 -2 -42t-4 -32l-2 -10h4q12 32 34 67.5t60.5 75.5t86 72t114 53t139.5 21q97 0 164.5 -27.5t104.5 -82.5t53 -124.5t16 -165.5v-649h-86v618q0 61 -4 105t-19 93t-41 79t-74 50t-114 20q-144 0 -259.5 -91.5t-153.5 -234.5q-17 -61 -17 -139
v-500h-86zM578 1206l-164 228h100l115 -164h4l115 164h100l-164 -228h-106z" />
    <glyph glyph-name="napostrophe" unicode="&#x149;" horiz-adv-x="1200" 
d="M180 0v1024h86v-180q0 -21 -2 -42t-4 -32l-2 -10h4q12 32 34 67.5t60.5 75.5t86 72t114 53t139.5 21q97 0 164.5 -27.5t104.5 -82.5t53 -124.5t16 -165.5v-649h-86v618q0 61 -4 105t-19 93t-41 79t-74 50t-114 20q-144 0 -259.5 -91.5t-153.5 -234.5q-17 -61 -17 -139
v-500h-86zM66 1434h98q12 -52 12 -97q0 -76 -45 -178h-80q37 95 37 160q0 56 -22 115z" />
    <glyph glyph-name="Eng" unicode="&#x14a;" horiz-adv-x="1540" 
d="M221 0v1434h82l817 -1125q21 -29 50 -74t48 -75l19 -31h4q-10 108 -10 180v1125h88v-1438q0 -110 -33 -193.5t-89.5 -130.5t-122 -69.5t-138.5 -22.5v86q44 0 85 10.5t80 35.5t67 63t45.5 98t17.5 135l-811 1116q-21 29 -50 74.5t-48 75.5l-19 31h-4q10 -109 10 -181
v-1124h-88z" />
    <glyph glyph-name="eng" unicode="&#x14b;" horiz-adv-x="1200" 
d="M180 0v1024h86v-170l-4 -84h4q11 31 33 66t60 73.5t84.5 69t113 50.5t139.5 20q97 0 164.5 -27.5t104.5 -82.5t53 -124.5t16 -165.5v-700q0 -97 -24.5 -169.5t-59.5 -111t-82.5 -62t-84 -30t-74.5 -6.5l-52 4v80q18 -4 45 -4q30 0 58 5t63.5 24t62 49.5t44.5 87t18 131.5
v671q0 61 -4 105t-19 93t-41 79t-74 50t-114 20q-144 0 -259.5 -91.5t-153.5 -234.5q-17 -61 -17 -139v-500h-86z" />
    <glyph glyph-name="Omacron" unicode="&#x14c;" horiz-adv-x="1691" 
d="M121 727q0 152 57.5 288t155 232.5t231.5 153.5t281 57t281 -57t231.5 -153.5t155 -232.5t57.5 -288q0 -155 -57.5 -295t-155 -240t-231.5 -158.5t-281 -58.5t-281 58.5t-231.5 158.5t-155 240t-57.5 295zM213 727q0 -185 85 -339t230 -241.5t318 -87.5t318 87.5
t230 241.5t85 339q0 180 -85 329t-230 233.5t-318 84.5t-318 -84.5t-230 -233.5t-85 -329zM602 1610v82h490v-82h-490z" />
    <glyph glyph-name="omacron" unicode="&#x14d;" horiz-adv-x="1269" 
d="M104 518q0 147 71 269t193 192t267 70t266.5 -70t192.5 -192t71 -269q0 -150 -71 -275t-192.5 -196.5t-266.5 -71.5q-108 0 -206 42.5t-169.5 114.5t-113.5 173t-42 213zM195 518q0 -194 128 -326.5t312 -132.5t312 132.5t128 326.5q0 189 -128 318t-312 129t-312 -129
t-128 -318zM391 1280v82h490v-82h-490z" />
    <glyph glyph-name="Obreve" unicode="&#x14e;" horiz-adv-x="1691" 
d="M121 727q0 152 57.5 288t155 232.5t231.5 153.5t281 57t281 -57t231.5 -153.5t155 -232.5t57.5 -288q0 -155 -57.5 -295t-155 -240t-231.5 -158.5t-281 -58.5t-281 58.5t-231.5 158.5t-155 240t-57.5 295zM213 727q0 -185 85 -339t230 -241.5t318 -87.5t318 87.5
t230 241.5t85 339q0 180 -85 329t-230 233.5t-318 84.5t-318 -84.5t-230 -233.5t-85 -329zM846 1530q-85 0 -146 52.5t-61 148.5v32h82v-28q0 -64 35 -95.5t90 -31.5q54 0 89.5 32t35.5 97v26h82v-32q0 -96 -61 -148.5t-146 -52.5z" />
    <glyph glyph-name="obreve" unicode="&#x14f;" horiz-adv-x="1269" 
d="M104 518q0 147 71 269t193 192t267 70t266.5 -70t192.5 -192t71 -269q0 -150 -71 -275t-192.5 -196.5t-266.5 -71.5q-108 0 -206 42.5t-169.5 114.5t-113.5 173t-42 213zM195 518q0 -194 128 -326.5t312 -132.5t312 132.5t128 326.5q0 189 -128 318t-312 129t-312 -129
t-128 -318zM635 1200q-85 0 -146 52.5t-61 148.5v33h82v-29q0 -64 35 -95.5t90 -31.5q54 0 89.5 32t35.5 97v27h82v-33q0 -96 -61 -148.5t-146 -52.5z" />
    <glyph glyph-name="Ohungarumlaut" unicode="&#x150;" horiz-adv-x="1691" 
d="M121 727q0 152 57.5 288t155 232.5t231.5 153.5t281 57t281 -57t231.5 -153.5t155 -232.5t57.5 -288q0 -155 -57.5 -295t-155 -240t-231.5 -158.5t-281 -58.5t-281 58.5t-231.5 158.5t-155 240t-57.5 295zM213 727q0 -185 85 -339t230 -241.5t318 -87.5t318 87.5
t230 241.5t85 339q0 180 -85 329t-230 233.5t-318 84.5t-318 -84.5t-230 -233.5t-85 -329zM887 1536l137 227h115l-162 -227h-90zM651 1536l127 227h103l-133 -227h-97z" />
    <glyph glyph-name="ohungarumlaut" unicode="&#x151;" horiz-adv-x="1269" 
d="M104 518q0 147 71 269t193 192t267 70t266.5 -70t192.5 -192t71 -269q0 -150 -71 -275t-192.5 -196.5t-266.5 -71.5q-108 0 -206 42.5t-169.5 114.5t-113.5 173t-42 213zM195 518q0 -194 128 -326.5t312 -132.5t312 132.5t128 326.5q0 189 -128 318t-312 129t-312 -129
t-128 -318zM676 1206l137 228h115l-162 -228h-90zM440 1206l127 228h103l-133 -228h-97z" />
    <glyph glyph-name="OE" unicode="&#x152;" horiz-adv-x="1939" 
d="M127 717q0 154 53.5 289.5t147.5 234.5t229 156t291 57q36 0 122.5 -10t114.5 -10h691v-82h-697v-588h572v-82h-572v-600h736v-82h-728q-27 0 -114.5 -10t-124.5 -10q-208 0 -373.5 97t-256.5 265.5t-91 374.5zM219 717q0 -185 77.5 -333.5t221.5 -234.5t330 -86
q34 0 69.5 4.5t54.5 8.5l19 4v1274q-67 16 -143 16q-186 0 -330 -86t-221.5 -234.5t-77.5 -332.5z" />
    <glyph glyph-name="oe" unicode="&#x153;" horiz-adv-x="2099" 
d="M106 510q0 119 42.5 221t115 171t169 108t202.5 39q157 0 286.5 -82.5t192.5 -223.5h4q59 146 181.5 226t273.5 80q101 0 182.5 -38t132 -103t77 -148t26.5 -178l-4 -56h-822q6 -221 131.5 -344t307.5 -123q55 0 108 13.5t89 32.5t64.5 37.5t42.5 31.5l13 14l47 -71
q-6 -6 -17 -15.5t-47.5 -34t-76 -43t-100.5 -34t-123 -15.5q-162 0 -292.5 82t-191.5 226h-4q-63 -144 -192.5 -226t-288.5 -82q-107 0 -203 38.5t-168.5 106.5t-115 169.5t-42.5 220.5zM1171 606h730q-7 178 -100 270.5t-230 92.5q-148 0 -260.5 -95t-139.5 -268zM197 510
q0 -200 127 -325.5t311 -125.5q185 0 312.5 127t127.5 334q0 131 -61.5 234t-161.5 157t-217 54q-184 0 -311 -127.5t-127 -327.5z" />
    <glyph glyph-name="Racute" unicode="&#x154;" horiz-adv-x="1271" 
d="M221 0v1434h420q173 0 258 -43q92 -46 145.5 -135t53.5 -209q0 -152 -79.5 -260t-207.5 -136v-4q15 -16 33 -51l321 -596h-104l-340 635h-412v-635h-88zM309 717h389q140 0 224 91.5t84 238.5q0 95 -45 168t-123 108q-66 29 -201 29h-328v-635zM563 1536l137 227h115
l-162 -227h-90z" />
    <glyph glyph-name="racute" unicode="&#x155;" horiz-adv-x="692" 
d="M180 0v1024h86v-195q0 -21 -2 -42t-4 -31l-2 -11h4q41 126 126.5 206.5t201.5 80.5l59 -6v-86q-24 4 -47 4q-113 0 -190.5 -81t-114.5 -206q-31 -97 -31 -215v-442h-86zM375 1206l137 228h115l-162 -228h-90z" />
    <glyph glyph-name="Rcommaaccent" unicode="&#x156;" horiz-adv-x="1271" 
d="M221 0v1434h420q173 0 258 -43q92 -46 145.5 -135t53.5 -209q0 -152 -79.5 -260t-207.5 -136v-4q15 -16 33 -51l321 -596h-104l-340 635h-412v-635h-88zM309 717h389q140 0 224 91.5t84 238.5q0 95 -45 168t-123 108q-66 29 -201 29h-328v-635zM600 -135h98
q13 -57 13 -96q0 -77 -45 -179h-80q37 95 37 160q0 53 -23 115z" />
    <glyph glyph-name="rcommaaccent" unicode="&#x157;" horiz-adv-x="692" 
d="M180 0v1024h86v-195q0 -21 -2 -42t-4 -31l-2 -11h4q41 126 126.5 206.5t201.5 80.5l59 -6v-86q-24 4 -47 4q-113 0 -190.5 -81t-114.5 -206q-31 -97 -31 -215v-442h-86zM176 -135h98q13 -57 13 -96q0 -77 -45 -179h-80q37 95 37 160q0 53 -23 115z" />
    <glyph glyph-name="Rcaron" unicode="&#x158;" horiz-adv-x="1271" 
d="M221 0v1434h420q173 0 258 -43q92 -46 145.5 -135t53.5 -209q0 -152 -79.5 -260t-207.5 -136v-4q15 -16 33 -51l321 -596h-104l-340 635h-412v-635h-88zM309 717h389q140 0 224 91.5t84 238.5q0 95 -45 168t-123 108q-66 29 -201 29h-328v-635zM557 1536l-164 227h101
l114 -164h4l115 164h100l-163 -227h-107z" />
    <glyph glyph-name="rcaron" unicode="&#x159;" horiz-adv-x="692" 
d="M180 0v1024h86v-195q0 -21 -2 -42t-4 -31l-2 -11h4q41 126 126.5 206.5t201.5 80.5l59 -6v-86q-24 4 -47 4q-113 0 -190.5 -81t-114.5 -206q-31 -97 -31 -215v-442h-86zM369 1206l-164 228h100l115 -164h4l115 164h100l-164 -228h-106z" />
    <glyph glyph-name="Sacute" unicode="&#x15a;" horiz-adv-x="1085" 
d="M115 154l59 67q6 -7 17 -17.5t49 -38t79.5 -48.5t106 -38.5t131.5 -17.5q136 0 228 78.5t92 204.5q0 65 -25 118t-67.5 89t-97.5 66.5t-116 56.5t-122 52.5t-116 59.5t-97.5 73t-67.5 98t-25 130q0 149 121 260t309 111q65 0 126.5 -13.5t103 -33t73.5 -39.5t47 -34
l15 -13l-49 -76q-5 5 -14.5 13.5t-41 29.5t-66 37t-87 29.5t-105.5 13.5q-152 0 -245.5 -85.5t-93.5 -196.5q0 -60 25 -109t67.5 -82.5t97.5 -62.5t116 -54t121.5 -52t115.5 -61.5t97.5 -77t67.5 -104.5t25 -139q0 -159 -114 -266t-302 -107q-79 0 -153.5 18.5t-124 44.5
t-87.5 52.5t-56 45.5zM502 1536l137 227h115l-162 -227h-90z" />
    <glyph glyph-name="sacute" unicode="&#x15b;" horiz-adv-x="892" 
d="M92 123l55 65l14 -14t39.5 -31t65 -39t88.5 -31t111 -14q99 0 167 51t68 142q0 52 -31 92.5t-80.5 66.5t-109.5 49t-120.5 49.5t-110 58.5t-80.5 84t-31 120q0 131 95 204t233 73q59 0 111.5 -11.5t86 -27.5t58.5 -32.5t36 -27.5l11 -12l-51 -70q-3 4 -10 10.5t-31 23
t-51 29.5t-72 23.5t-94 10.5q-97 0 -164.5 -47t-67.5 -140q0 -47 24 -85t64 -61.5t90.5 -47t103.5 -41.5t103.5 -45t90.5 -57.5t64 -79t24 -109.5q0 -122 -93 -199.5t-235 -77.5q-69 0 -133 15t-105.5 37t-73 44t-45.5 37zM412 1206l137 228h115l-162 -228h-90z" />
    <glyph glyph-name="Scircumflex" unicode="&#x15c;" horiz-adv-x="1085" 
d="M115 154l59 67q6 -7 17 -17.5t49 -38t79.5 -48.5t106 -38.5t131.5 -17.5q136 0 228 78.5t92 204.5q0 65 -25 118t-67.5 89t-97.5 66.5t-116 56.5t-122 52.5t-116 59.5t-97.5 73t-67.5 98t-25 130q0 149 121 260t309 111q65 0 126.5 -13.5t103 -33t73.5 -39.5t47 -34
l15 -13l-49 -76q-5 5 -14.5 13.5t-41 29.5t-66 37t-87 29.5t-105.5 13.5q-152 0 -245.5 -85.5t-93.5 -196.5q0 -60 25 -109t67.5 -82.5t97.5 -62.5t116 -54t121.5 -52t115.5 -61.5t97.5 -77t67.5 -104.5t25 -139q0 -159 -114 -266t-302 -107q-79 0 -153.5 18.5t-124 44.5
t-87.5 52.5t-56 45.5zM334 1536l164 227h106l164 -227h-100l-115 164h-4l-115 -164h-100z" />
    <glyph glyph-name="scircumflex" unicode="&#x15d;" horiz-adv-x="892" 
d="M92 123l55 65l14 -14t39.5 -31t65 -39t88.5 -31t111 -14q99 0 167 51t68 142q0 52 -31 92.5t-80.5 66.5t-109.5 49t-120.5 49.5t-110 58.5t-80.5 84t-31 120q0 131 95 204t233 73q59 0 111.5 -11.5t86 -27.5t58.5 -32.5t36 -27.5l11 -12l-51 -70q-3 4 -10 10.5t-31 23
t-51 29.5t-72 23.5t-94 10.5q-97 0 -164.5 -47t-67.5 -140q0 -47 24 -85t64 -61.5t90.5 -47t103.5 -41.5t103.5 -45t90.5 -57.5t64 -79t24 -109.5q0 -122 -93 -199.5t-235 -77.5q-69 0 -133 15t-105.5 37t-73 44t-45.5 37zM244 1206l164 228h106l164 -228h-100l-115 164h-4
l-115 -164h-100z" />
    <glyph glyph-name="Scedilla" unicode="&#x15e;" horiz-adv-x="1085" 
d="M115 154l59 67q6 -7 17 -17.5t49 -38t79.5 -48.5t106 -38.5t131.5 -17.5q136 0 228 78.5t92 204.5q0 65 -25 118t-67.5 89t-97.5 66.5t-116 56.5t-122 52.5t-116 59.5t-97.5 73t-67.5 98t-25 130q0 149 121 260t309 111q65 0 126.5 -13.5t103 -33t73.5 -39.5t47 -34
l15 -13l-49 -76q-5 5 -14.5 13.5t-41 29.5t-66 37t-87 29.5t-105.5 13.5q-152 0 -245.5 -85.5t-93.5 -196.5q0 -60 25 -109t67.5 -82.5t97.5 -62.5t116 -54t121.5 -52t115.5 -61.5t97.5 -77t67.5 -104.5t25 -139q0 -153 -105 -257.5t-280 -113.5l-19 -100q64 -9 103 -46.5
t39 -92.5q0 -79 -53.5 -117.5t-133.5 -38.5q-24 0 -46.5 2t-33.5 4l-10 2v78q37 -10 84 -10q111 0 111 76q0 36 -33 57t-92 21l-25 -2l35 167q-72 4 -139 24t-111.5 45.5t-78.5 50t-50 41.5z" />
    <glyph glyph-name="scedilla" unicode="&#x15f;" horiz-adv-x="892" 
d="M92 123l55 65l14 -14t39.5 -31t65 -39t88.5 -31t111 -14q99 0 167 51t68 142q0 52 -31 92.5t-80.5 66.5t-109.5 49t-120.5 49.5t-110 58.5t-80.5 84t-31 120q0 131 95 204t233 73q59 0 111.5 -11.5t86 -27.5t58.5 -32.5t36 -27.5l11 -12l-51 -70q-3 4 -10 10.5t-31 23
t-51 29.5t-72 23.5t-94 10.5q-97 0 -164.5 -47t-67.5 -140q0 -47 24 -85t64 -61.5t90.5 -47t103.5 -41.5t103.5 -45t90.5 -57.5t64 -79t24 -109.5q0 -116 -85 -191.5t-217 -83.5l-18 -100q64 -9 102.5 -46.5t38.5 -92.5q0 -79 -53 -117.5t-133 -38.5q-24 0 -46.5 2t-33.5 4
l-10 2v78q37 -10 84 -10q110 0 110 76q0 36 -32.5 57t-91.5 21l-25 -2l35 167q-61 4 -116.5 21t-91.5 37.5t-63.5 40.5t-40.5 34z" />
    <glyph glyph-name="Scaron" unicode="&#x160;" horiz-adv-x="1085" 
d="M115 154l59 67q6 -7 17 -17.5t49 -38t79.5 -48.5t106 -38.5t131.5 -17.5q136 0 228 78.5t92 204.5q0 65 -25 118t-67.5 89t-97.5 66.5t-116 56.5t-122 52.5t-116 59.5t-97.5 73t-67.5 98t-25 130q0 149 121 260t309 111q65 0 126.5 -13.5t103 -33t73.5 -39.5t47 -34
l15 -13l-49 -76q-5 5 -14.5 13.5t-41 29.5t-66 37t-87 29.5t-105.5 13.5q-152 0 -245.5 -85.5t-93.5 -196.5q0 -60 25 -109t67.5 -82.5t97.5 -62.5t116 -54t121.5 -52t115.5 -61.5t97.5 -77t67.5 -104.5t25 -139q0 -159 -114 -266t-302 -107q-79 0 -153.5 18.5t-124 44.5
t-87.5 52.5t-56 45.5zM498 1536l-164 227h100l115 -164h4l115 164h100l-164 -227h-106z" />
    <glyph glyph-name="scaron" unicode="&#x161;" horiz-adv-x="892" 
d="M92 123l55 65l14 -14t39.5 -31t65 -39t88.5 -31t111 -14q99 0 167 51t68 142q0 52 -31 92.5t-80.5 66.5t-109.5 49t-120.5 49.5t-110 58.5t-80.5 84t-31 120q0 131 95 204t233 73q59 0 111.5 -11.5t86 -27.5t58.5 -32.5t36 -27.5l11 -12l-51 -70q-3 4 -10 10.5t-31 23
t-51 29.5t-72 23.5t-94 10.5q-97 0 -164.5 -47t-67.5 -140q0 -47 24 -85t64 -61.5t90.5 -47t103.5 -41.5t103.5 -45t90.5 -57.5t64 -79t24 -109.5q0 -122 -93 -199.5t-235 -77.5q-69 0 -133 15t-105.5 37t-73 44t-45.5 37zM408 1206l-164 228h100l115 -164h4l115 164h100
l-164 -228h-106z" />
    <glyph glyph-name="Tcommaaccent" unicode="&#x162;" horiz-adv-x="1189" 
d="M551 0v1352h-535v82h1158v-82h-535v-1352h-10l-23 -123q64 -9 103 -46.5t39 -92.5q0 -79 -53.5 -117.5t-133.5 -38.5q-24 0 -46.5 2t-32.5 4l-11 2v78q37 -10 84 -10q111 0 111 76q0 36 -33 57t-92 21l-25 -2l41 190h-6z" />
    <glyph glyph-name="tcommaaccent" unicode="&#x163;" horiz-adv-x="645" 
d="M215 371v569h-135v78h135v291h86v-291h268v-78h-268v-563q0 -77 18 -135t44 -89.5t61.5 -50.5t63.5 -24.5t57 -5.5l47 4v-80q-20 -4 -51 -4q-56 0 -113 14l-22 -129q64 -9 102.5 -46.5t38.5 -92.5q0 -79 -53.5 -117.5t-133.5 -38.5q-24 0 -46.5 2t-33.5 4l-10 2v78
q37 -10 84 -10q111 0 111 76q0 36 -33 57t-92 21l-25 -2l50 225q-150 88 -150 336z" />
    <glyph glyph-name="Tcaron" unicode="&#x164;" horiz-adv-x="1189" 
d="M551 0v1352h-535v82h1158v-82h-535v-1352h-88zM541 1536l-164 227h100l115 -164h4l115 164h100l-164 -227h-106z" />
    <glyph glyph-name="tcaron" unicode="&#x165;" horiz-adv-x="643" 
d="M213 371v569h-135v78h135v291h86v-291h268v-78h-268v-563q0 -77 18 -135t44 -89.5t61.5 -50.5t63.5 -24.5t57 -5.5l47 4v-80q-20 -4 -51 -4q-26 0 -51.5 3t-59 13t-62.5 26t-58 45t-49.5 67.5t-33 96.5t-12.5 128zM449 1434h98q12 -53 12 -97q0 -76 -45 -178h-80
q37 95 37 160q0 56 -22 115z" />
    <glyph glyph-name="Tbar" unicode="&#x166;" horiz-adv-x="1236" 
d="M233 690v82h340v580h-534v82h1157v-82h-534v-580h348v-82h-348v-690h-89v690h-340z" />
    <glyph glyph-name="tbar" unicode="&#x167;" horiz-adv-x="694" 
d="M98 604v82h135v254h-135v78h135v291h86v-291h269v-78h-269v-254h269v-82h-269v-227q0 -77 18 -135t44 -89.5t61.5 -50.5t63.5 -24.5t57 -5.5l47 4v-80q-20 -4 -51 -4q-26 0 -51.5 3t-59 13t-62.5 26t-58 45t-49.5 67.5t-33 96.5t-12.5 128v233h-135z" />
    <glyph glyph-name="Utilde" unicode="&#x168;" horiz-adv-x="1472" 
d="M201 492v942h88v-938q0 -202 121 -319.5t325 -117.5t326.5 118.5t122.5 322.5v934h88v-942q0 -234 -148.5 -375.5t-386.5 -141.5t-387 141.5t-149 375.5zM440 1542q0 221 170 221q38 0 69.5 -15.5t53.5 -37.5t41.5 -44.5t43.5 -38t50 -15.5q25 0 43 15.5t25.5 40.5
t10.5 46t3 43h82q0 -221 -170 -221q-38 0 -69.5 15.5t-53.5 38t-41.5 45t-43.5 38t-50 15.5q-33 0 -53 -28.5t-24.5 -57.5t-4.5 -60h-82z" />
    <glyph glyph-name="utilde" unicode="&#x169;" horiz-adv-x="1189" 
d="M166 375v649h86v-618q0 -61 4 -105t19 -93t41 -79t74 -50t114 -20q124 0 221.5 66.5t148 172t50.5 226.5v500h86v-1024h-86v180q0 21 2 42t4 32l2 10h-4q-12 -32 -33.5 -67.5t-59.5 -75.5t-84 -72t-111 -53t-136 -21q-183 0 -260.5 98.5t-77.5 301.5zM293 1212
q0 222 170 222q38 0 69.5 -15.5t53.5 -38t41.5 -45t43.5 -38t50 -15.5q25 0 43 15.5t25.5 40.5t10.5 46t3 43h82q0 -221 -170 -221q-38 0 -69.5 15.5t-53.5 38t-41.5 45t-43.5 38t-50 15.5q-33 0 -53 -28.5t-24.5 -57.5t-4.5 -60h-82z" />
    <glyph glyph-name="Umacron" unicode="&#x16a;" horiz-adv-x="1472" 
d="M201 492v942h88v-938q0 -202 121 -319.5t325 -117.5t326.5 118.5t122.5 322.5v934h88v-942q0 -234 -148.5 -375.5t-386.5 -141.5t-387 141.5t-149 375.5zM492 1610v82h489v-82h-489z" />
    <glyph glyph-name="umacron" unicode="&#x16b;" horiz-adv-x="1189" 
d="M166 375v649h86v-618q0 -61 4 -105t19 -93t41 -79t74 -50t114 -20q124 0 221.5 66.5t148 172t50.5 226.5v500h86v-1024h-86v180q0 21 2 42t4 32l2 10h-4q-12 -32 -33.5 -67.5t-59.5 -75.5t-84 -72t-111 -53t-136 -21q-183 0 -260.5 98.5t-77.5 301.5zM344 1280v82h490
v-82h-490z" />
    <glyph glyph-name="Ubreve" unicode="&#x16c;" horiz-adv-x="1472" 
d="M201 492v942h88v-938q0 -202 121 -319.5t325 -117.5t326.5 118.5t122.5 322.5v934h88v-942q0 -234 -148.5 -375.5t-386.5 -141.5t-387 141.5t-149 375.5zM735 1530q-85 0 -146 52.5t-61 148.5v32h82v-28q0 -64 35 -95.5t90 -31.5q54 0 89.5 32t35.5 97v26h82v-32
q0 -96 -61 -148.5t-146 -52.5z" />
    <glyph glyph-name="ubreve" unicode="&#x16d;" horiz-adv-x="1189" 
d="M166 375v649h86v-618q0 -61 4 -105t19 -93t41 -79t74 -50t114 -20q124 0 221.5 66.5t148 172t50.5 226.5v500h86v-1024h-86v180q0 21 2 42t4 32l2 10h-4q-12 -32 -33.5 -67.5t-59.5 -75.5t-84 -72t-111 -53t-136 -21q-183 0 -260.5 98.5t-77.5 301.5zM588 1200
q-85 0 -146 52.5t-61 148.5v33h82v-29q0 -64 35 -95.5t90 -31.5q54 0 89.5 32t35.5 97v27h82v-33q0 -96 -61 -148.5t-146 -52.5z" />
    <glyph glyph-name="Uring" unicode="&#x16e;" horiz-adv-x="1472" 
d="M201 492v942h88v-938q0 -202 121 -319.5t325 -117.5t326.5 118.5t122.5 322.5v934h88v-942q0 -234 -148.5 -375.5t-386.5 -141.5t-387 141.5t-149 375.5zM735 1516q-59 0 -98 39t-39 98t39 98t98 39t98 -39t39 -98t-39 -98t-98 -39zM735 1587q29 0 47.5 18.5t18.5 47.5
q0 31 -18.5 49t-47.5 18t-47 -18t-18 -49q0 -29 18 -47.5t47 -18.5z" />
    <glyph glyph-name="uring" unicode="&#x16f;" horiz-adv-x="1189" 
d="M166 375v649h86v-618q0 -61 4 -105t19 -93t41 -79t74 -50t114 -20q124 0 221.5 66.5t148 172t50.5 226.5v500h86v-1024h-86v180q0 21 2 42t4 32l2 10h-4q-12 -32 -33.5 -67.5t-59.5 -75.5t-84 -72t-111 -53t-136 -21q-183 0 -260.5 98.5t-77.5 301.5zM588 1186
q-58 0 -97.5 39t-39.5 98t39.5 98t97.5 39t97.5 -39t39.5 -98t-39.5 -98t-97.5 -39zM588 1257q29 0 47 18.5t18 47.5q0 31 -18 49.5t-47 18.5t-47.5 -18.5t-18.5 -49.5q0 -29 18.5 -47.5t47.5 -18.5z" />
    <glyph glyph-name="Uhungarumlaut" unicode="&#x170;" horiz-adv-x="1472" 
d="M201 492v942h88v-938q0 -202 121 -319.5t325 -117.5t326.5 118.5t122.5 322.5v934h88v-942q0 -234 -148.5 -375.5t-386.5 -141.5t-387 141.5t-149 375.5zM776 1536l137 227h115l-162 -227h-90zM541 1536l127 227h102l-133 -227h-96z" />
    <glyph glyph-name="uhungarumlaut" unicode="&#x171;" horiz-adv-x="1189" 
d="M166 375v649h86v-618q0 -61 4 -105t19 -93t41 -79t74 -50t114 -20q124 0 221.5 66.5t148 172t50.5 226.5v500h86v-1024h-86v180q0 21 2 42t4 32l2 10h-4q-12 -32 -33.5 -67.5t-59.5 -75.5t-84 -72t-111 -53t-136 -21q-183 0 -260.5 98.5t-77.5 301.5zM629 1206l137 228
h115l-162 -228h-90zM393 1206l127 228h103l-134 -228h-96z" />
    <glyph glyph-name="Uogonek" unicode="&#x172;" horiz-adv-x="1474" 
d="M684 -231q0 104 104 204v4q-33 -2 -51 -2q-238 0 -387 141.5t-149 375.5v942h88v-938q0 -202 121 -319.5t325 -117.5t326.5 118.5t122.5 322.5v934h88v-942q0 -92 -22 -167.5t-63.5 -130t-83.5 -91t-99 -72.5t-87 -57t-68.5 -55t-55.5 -68.5t-17 -73.5q0 -29 14.5 -51
t35 -33.5t40.5 -19t34 -9.5l15 -2l-18 -80q-9 1 -23 2.5t-51 13.5t-65 30t-51 55t-23 86z" />
    <glyph glyph-name="uogonek" unicode="&#x173;" horiz-adv-x="1189" 
d="M166 375v649h86v-618q0 -61 4 -105t19 -93t41 -79t74 -50t114 -20q124 0 221.5 66.5t148 172t50.5 226.5v500h86v-1024q-164 -122 -164 -223q0 -29 14.5 -51t35 -33.5t40.5 -19t34 -9.5l15 -2l-18 -80q-9 1 -23 2.5t-51 13.5t-65 30t-51 55t-23 86t24 96.5t57.5 79t56 49
t32.5 22.5v154l4 84h-4q-11 -31 -33 -66t-59 -73.5t-82.5 -69t-110 -50.5t-135.5 -20q-183 0 -260.5 98.5t-77.5 301.5z" />
    <glyph glyph-name="Wcircumflex" unicode="&#x174;" horiz-adv-x="1882" 
d="M938 1309h-4q-28 -136 -55 -228l-304 -1081h-110l-377 1434h92l303 -1168l35 -153h4q1 0 6 22t15 61.5t18 69.5l328 1168h98l328 -1168q8 -30 18 -69.5t15 -61.5t6 -22h4q17 83 35 153l313 1168h92l-387 -1434h-111l-303 1081q-12 41 -25.5 98t-21.5 93l-8 37h-4z
M743 1536l164 227h107l164 -227h-101l-114 164h-5l-114 -164h-101z" />
    <glyph glyph-name="wcircumflex" unicode="&#x175;" horiz-adv-x="1632" 
d="M403 0l-360 1024h92l279 -803l35 -110h4q18 61 34 110l281 799h96l281 -799l35 -110h4q17 59 35 110l278 803h92l-360 -1024h-92l-285 795l-35 110h-4q-17 -61 -35 -110l-282 -795h-93zM598 1206l164 228h106l164 -228h-100l-115 164h-4l-115 -164h-100z" />
    <glyph glyph-name="Ycircumflex" unicode="&#x176;" horiz-adv-x="1138" 
d="M526 0v623l-487 811h100l340 -566l88 -161h4q45 91 88 161l340 566h101l-486 -811v-623h-88zM352 1536l164 227h107l163 -227h-100l-115 164h-4l-114 -164h-101z" />
    <glyph glyph-name="ycircumflex" unicode="&#x177;" horiz-adv-x="1001" 
d="M16 -373l39 74q6 -5 17.5 -13.5t45 -22t64.5 -13.5q122 0 201 184l74 170l-424 1018h92l338 -817l37 -96h4q15 47 35 96l338 817h92l-527 -1264q-36 -85 -102 -137.5t-158 -52.5q-44 0 -85.5 14t-60.5 28zM287 1206l164 228h106l164 -228h-100l-115 164h-4l-115 -164
h-100z" />
    <glyph glyph-name="Ydieresis" unicode="&#x178;" horiz-adv-x="1138" 
d="M526 0v623l-487 811h100l340 -566l88 -161h4q45 91 88 161l340 566h101l-486 -811v-623h-88zM651 1614v149h94v-149h-94zM371 1614v149h94v-149h-94z" />
    <glyph glyph-name="Zacute" unicode="&#x179;" horiz-adv-x="1200" 
d="M90 0v70l789 1151q22 33 46.5 65.5t38.5 49.5l13 16v4q-33 -4 -105 -4h-739v82h950v-70l-788 -1151q-22 -33 -46.5 -65.5t-38.5 -49.5l-13 -16v-4q32 4 104 4h789v-82h-1000zM573 1536l138 227h114l-161 -227h-91z" />
    <glyph glyph-name="zacute" unicode="&#x17a;" horiz-adv-x="1026" 
d="M90 0v70l621 780l80 94v4q-37 -4 -105 -4h-569v80h790v-70l-622 -780q-16 -21 -36.5 -44.5t-32.5 -36.5l-13 -13v-4q38 4 106 4h621v-80h-840zM461 1206l137 228h115l-162 -228h-90z" />
    <glyph glyph-name="Zdotaccent" unicode="&#x17b;" horiz-adv-x="1200" 
d="M90 0v70l789 1151q22 33 46.5 65.5t38.5 49.5l13 16v4q-33 -4 -105 -4h-739v82h950v-70l-788 -1151q-22 -33 -46.5 -65.5t-38.5 -49.5l-13 -16v-4q32 4 104 4h789v-82h-1000zM573 1614v149h95v-149h-95z" />
    <glyph glyph-name="zdotaccent" unicode="&#x17c;" horiz-adv-x="1026" 
d="M90 0v70l621 780l80 94v4q-37 -4 -105 -4h-569v80h790v-70l-622 -780q-16 -21 -36.5 -44.5t-32.5 -36.5l-13 -13v-4q38 4 106 4h621v-80h-840zM463 1284v150h94v-150h-94z" />
    <glyph glyph-name="Zcaron" unicode="&#x17d;" horiz-adv-x="1200" 
d="M90 0v70l789 1151q22 33 46.5 65.5t38.5 49.5l13 16v4q-33 -4 -105 -4h-739v82h950v-70l-788 -1151q-22 -33 -46.5 -65.5t-38.5 -49.5l-13 -16v-4q32 4 104 4h789v-82h-1000zM567 1536l-164 227h101l114 -164h5l114 164h101l-164 -227h-107z" />
    <glyph glyph-name="zcaron" unicode="&#x17e;" horiz-adv-x="1026" 
d="M90 0v70l621 780l80 94v4q-37 -4 -105 -4h-569v80h790v-70l-622 -780q-16 -21 -36.5 -44.5t-32.5 -36.5l-13 -13v-4q38 4 106 4h621v-80h-840zM457 1206l-164 228h100l115 -164h4l115 164h100l-164 -228h-106z" />
    <glyph glyph-name="longs" unicode="&#x17f;" horiz-adv-x="489" 
d="M223 0v940h-129v78h129v47q0 96 24.5 168.5t59.5 111.5t82.5 62.5t84 30t73.5 6.5l53 -4v-80q-18 4 -47 4t-57 -5t-63.5 -24t-61.5 -49.5t-44 -87t-18 -131.5v-1067h-86z" />
    <glyph glyph-name="florin" unicode="&#x192;" horiz-adv-x="1163" 
d="M82 -117q55 -10 127 -10q29 0 57 5t65 23.5t64.5 49.5t50 87.5t29.5 131.5l53 604h-196v78h203l20 227q8 96 39.5 168.5t70 111.5t88.5 62.5t87.5 30t74.5 6.5q38 0 79.5 -3.5t63.5 -6.5l23 -4v-80q-86 14 -168 14q-30 0 -58 -5t-65 -23.5t-64.5 -49.5t-50.5 -87.5
t-30 -131.5l-22 -229h272v-78h-279l-53 -602q-6 -70 -24 -128t-42 -96.5t-55.5 -67.5t-61 -45t-63.5 -26t-59.5 -13t-50.5 -3q-34 0 -65 2.5t-46 4.5l-14 3v80z" />
    <glyph glyph-name="Scommaaccent" unicode="&#x218;" horiz-adv-x="1085" 
d="M115 154l59 67q6 -7 17 -17.5t49 -38t79.5 -48.5t106 -38.5t131.5 -17.5q136 0 228 78.5t92 204.5q0 65 -25 118t-67.5 89t-97.5 66.5t-116 56.5t-122 52.5t-116 59.5t-97.5 73t-67.5 98t-25 130q0 149 121 260t309 111q65 0 126.5 -13.5t103 -33t73.5 -39.5t47 -34
l15 -13l-49 -76q-5 5 -14.5 13.5t-41 29.5t-66 37t-87 29.5t-105.5 13.5q-152 0 -245.5 -85.5t-93.5 -196.5q0 -60 25 -109t67.5 -82.5t97.5 -62.5t116 -54t121.5 -52t115.5 -61.5t97.5 -77t67.5 -104.5t25 -139q0 -159 -114 -266t-302 -107q-79 0 -153.5 18.5t-124 44.5
t-87.5 52.5t-56 45.5zM496 -135h98q12 -53 12 -96q0 -77 -45 -179h-80q37 95 37 160q0 56 -22 115z" />
    <glyph glyph-name="scommaaccent" unicode="&#x219;" horiz-adv-x="892" 
d="M92 123l55 65l14 -14t39.5 -31t65 -39t88.5 -31t111 -14q99 0 167 51t68 142q0 52 -31 92.5t-80.5 66.5t-109.5 49t-120.5 49.5t-110 58.5t-80.5 84t-31 120q0 131 95 204t233 73q59 0 111.5 -11.5t86 -27.5t58.5 -32.5t36 -27.5l11 -12l-51 -70q-3 4 -10 10.5t-31 23
t-51 29.5t-72 23.5t-94 10.5q-97 0 -164.5 -47t-67.5 -140q0 -47 24 -85t64 -61.5t90.5 -47t103.5 -41.5t103.5 -45t90.5 -57.5t64 -79t24 -109.5q0 -122 -93 -199.5t-235 -77.5q-69 0 -133 15t-105.5 37t-73 44t-45.5 37zM408 -135h98q12 -52 12 -96q0 -77 -45 -179h-80
q37 95 37 160q0 56 -22 115z" />
    <glyph glyph-name="uni021A" unicode="&#x21a;" horiz-adv-x="1189" 
d="M551 0v1352h-535v82h1158v-82h-535v-1352h-88zM547 -135h98q12 -53 12 -96q0 -77 -45 -179h-80q37 95 37 160q0 56 -22 115z" />
    <glyph glyph-name="uni021B" unicode="&#x21b;" horiz-adv-x="643" 
d="M213 371v569h-135v78h135v291h86v-291h268v-78h-268v-563q0 -77 18 -135t44 -89.5t61.5 -50.5t63.5 -24.5t57 -5.5l47 4v-80q-20 -4 -51 -4q-26 0 -51.5 3t-59 13t-62.5 26t-58 45t-49.5 67.5t-33 96.5t-12.5 128zM377 -135h98q12 -52 12 -96q0 -77 -45 -179h-80
q37 95 37 160q0 56 -22 115z" />
    <glyph glyph-name="circumflex" unicode="&#x2c6;" horiz-adv-x="1040" 
d="M303 1536l164 227h106l164 -227h-100l-115 164h-4l-115 -164h-100z" />
    <glyph glyph-name="caron" unicode="&#x2c7;" horiz-adv-x="1040" 
d="M467 1536l-164 227h100l115 -164h4l115 164h100l-164 -227h-106z" />
    <glyph glyph-name="breve" unicode="&#x2d8;" horiz-adv-x="1044" 
d="M522 1530q-85 0 -146 52.5t-61 148.5v32h82v-28q0 -64 35 -95.5t90 -31.5q54 0 89.5 32t35.5 97v26h82v-32q0 -96 -61 -148.5t-146 -52.5z" />
    <glyph glyph-name="dotaccent" unicode="&#x2d9;" horiz-adv-x="1044" 
d="M475 1614v149h94v-149h-94z" />
    <glyph glyph-name="ring" unicode="&#x2da;" horiz-adv-x="1044" 
d="M522 1516q-58 0 -97.5 39t-39.5 98t39.5 98t97.5 39t97.5 -39t39.5 -98t-39.5 -98t-97.5 -39zM522 1587q29 0 47.5 18.5t18.5 47.5q0 31 -18 49t-48 18q-29 0 -47 -18t-18 -49q0 -29 18 -47.5t47 -18.5z" />
    <glyph glyph-name="ogonek" unicode="&#x2db;" horiz-adv-x="1042" 
d="M383 -231q0 46 20.5 91t49.5 76t57.5 56t49.5 37l20 12l79 -27q-7 -5 -19.5 -13.5t-44.5 -35.5t-56 -53.5t-44 -64t-20 -70.5q0 -29 14.5 -51t34.5 -33.5t40.5 -19t35.5 -9.5l14 -2l-18 -80q-9 1 -23 2.5t-51 13.5t-65 30t-51 55t-23 86z" />
    <glyph glyph-name="tilde" unicode="&#x2dc;" horiz-adv-x="1042" 
d="M225 1542q0 221 170 221q38 0 69.5 -15.5t53.5 -37.5t41.5 -44.5t43.5 -38t50 -15.5q25 0 43 15.5t25.5 40.5t10.5 46t3 43h82q0 -221 -170 -221q-38 0 -69.5 15.5t-53.5 38t-41.5 45t-43.5 38t-50 15.5q-33 0 -53 -28.5t-24.5 -57.5t-4.5 -60h-82z" />
    <glyph glyph-name="hungarumlaut" unicode="&#x2dd;" horiz-adv-x="1042" 
d="M514 1536l137 227h115l-162 -227h-90zM279 1536l127 227h102l-133 -227h-96z" />
    <glyph glyph-name="uni1E9E" unicode="&#x1e9e;" horiz-adv-x="1357" 
d="M205 0v1075q0 149 104.5 254t253.5 105h613v-62l-355 -495l-55 -74v-4h74q164 0 279.5 -116.5t115.5 -281.5t-115.5 -283t-279.5 -118h-351v82h347q132 0 219.5 93.5t87.5 225.5t-87 224t-216 92h-191v65l320 451q28 40 50.5 70t30.5 39l9 10v4q-12 -4 -86 -4h-398
q-123 0 -202.5 -80t-79.5 -197v-1075h-88z" />
    <glyph glyph-name="thinspace" unicode="&#x2009;" horiz-adv-x="20" 
 />
    <glyph glyph-name="endash" unicode="&#x2013;" horiz-adv-x="1138" 
d="M82 539v82h975v-82h-975z" />
    <glyph glyph-name="emdash" unicode="&#x2014;" horiz-adv-x="1548" 
d="M82 539v82h1384v-82h-1384z" />
    <glyph glyph-name="quoteleft" unicode="&#x2018;" horiz-adv-x="409" 
d="M123 1141l98 309h80l-72 -309h-106z" />
    <glyph glyph-name="quoteright" unicode="&#x2019;" horiz-adv-x="403" 
d="M129 1141l72 309h106l-98 -309h-80z" />
    <glyph glyph-name="quotesinglbase" unicode="&#x201a;" horiz-adv-x="481" 
d="M123 -184l72 309h106l-98 -309h-80z" />
    <glyph glyph-name="quotedblleft" unicode="&#x201c;" horiz-adv-x="614" 
d="M328 1141l98 309h80l-72 -309h-106zM123 1141l98 309h80l-72 -309h-106z" />
    <glyph glyph-name="quotedblright" unicode="&#x201d;" horiz-adv-x="608" 
d="M334 1141l72 309h106l-98 -309h-80zM129 1141l72 309h106l-98 -309h-80z" />
    <glyph glyph-name="quotedblbase" unicode="&#x201e;" horiz-adv-x="686" 
d="M328 -184l71 309h107l-98 -309h-80zM123 -184l72 309h106l-98 -309h-80z" />
    <glyph glyph-name="dagger" unicode="&#x2020;" horiz-adv-x="761" 
d="M334 -102v1044h-234v82h234v410h86v-410h244v-82h-244v-1044h-86z" />
    <glyph glyph-name="daggerdbl" unicode="&#x2021;" horiz-adv-x="837" 
d="M137 381v82h234v479h-234v82h234v410h86v-410h243v-82h-243v-479h243v-82h-243v-483h-86v483h-234z" />
    <glyph glyph-name="bullet" unicode="&#x2022;" horiz-adv-x="798" 
d="M399 326q-113 0 -191.5 79t-78.5 191t78.5 191t191.5 79t192 -79t79 -191t-79 -191t-192 -79z" />
    <glyph glyph-name="ellipsis" unicode="&#x2026;" horiz-adv-x="1357" 
d="M180 0v129h125v-129h-125zM616 0v129h125v-129h-125zM1053 0v129h125v-129h-125z" />
    <glyph glyph-name="perthousand" unicode="&#x2030;" horiz-adv-x="2082" 
d="M395 924q-110 0 -188 78t-78 188t78 189t188 79t189.5 -79t79.5 -189t-79 -188t-190 -78zM125 0l1087 1434h107l-1088 -1434h-106zM395 1006q76 0 128 53.5t52 130.5t-52 131.5t-128 54.5t-127 -54.5t-51 -131.5t51 -130.5t127 -53.5zM1432 242q0 110 78 189t188 79
t189 -79t79 -189t-79 -188.5t-189 -78.5t-188 78.5t-78 188.5zM776 242q0 110 78 189t188 79t189.5 -79t79.5 -189t-79.5 -188.5t-189.5 -78.5t-188 78.5t-78 188.5zM1520 242q0 -77 51 -131t127 -54t128 54t52 131t-52 131.5t-128 54.5t-127 -54.5t-51 -131.5zM864 242
q0 -77 51 -131t127 -54t128.5 54t52.5 131t-52.5 131.5t-128.5 54.5t-127 -54.5t-51 -131.5z" />
    <glyph glyph-name="guilsinglleft" unicode="&#x2039;" horiz-adv-x="677" 
d="M446 158l-335 420l335 421h109l-336 -421l336 -420h-109z" />
    <glyph glyph-name="guilsinglright" unicode="&#x203a;" horiz-adv-x="677" 
d="M123 158l336 420l-336 421h108l336 -421l-336 -420h-108z" />
    <glyph glyph-name="fraction" unicode="&#x2044;" horiz-adv-x="305" 
d="M-145 0h-91l689 1434h88z" />
    <glyph glyph-name="zerosuperior" unicode="&#x2070;" 
d="M385 846q-303 0 -303 465t303 465t303 -465t-303 -465zM385 920q223 0 223 391t-223 391t-223 -391q0 -69 6.5 -125.5t22 -107t40.5 -84.5t64 -54t90 -20z" />
    <glyph glyph-name="foursuperior" unicode="&#x2074;" 
d="M494 866v248h-441v53l455 588h63v-567h140v-74h-140v-248h-77zM166 1188h328v301l6 133h-4q-35 -55 -72 -102l-258 -328v-4z" />
    <glyph glyph-name="fivesuperior" unicode="&#x2075;" 
d="M365 846q-50 0 -95.5 14.5t-75 36t-52 42.5t-32.5 35l-10 15l66 43q3 -5 8 -12.5t23.5 -26.5t39.5 -34t55.5 -27t72.5 -12q96 0 162.5 64t66.5 157q0 91 -67 156t-162 65q-43 0 -84.5 -14t-61.5 -28l-20 -13l-54 20l54 428h422v-74h-357l-20 -186l-15 -88h4q56 29 134 29
q131 0 219 -86t88 -209q0 -124 -90.5 -209.5t-218.5 -85.5z" />
    <glyph glyph-name="sixsuperior" unicode="&#x2076;" 
d="M406 846q-145 0 -228.5 116t-83.5 291q0 70 13 140.5t42.5 140t72 123t108 86.5t145.5 33q42 0 84.5 -10t64.5 -20l21 -11l-39 -66q-61 33 -133 33q-83 0 -148.5 -53.5t-101 -134t-47.5 -177.5h4q35 42 100 70.5t126 28.5q123 0 202.5 -79t79.5 -208q0 -144 -80.5 -223.5
t-201.5 -79.5zM406 920q95 0 148.5 65t53.5 164q0 97 -57 155t-148 58q-88 0 -156.5 -51t-68.5 -109q0 -61 26.5 -124.5t81 -110.5t120.5 -47z" />
    <glyph glyph-name="sevensuperior" unicode="&#x2077;" 
d="M145 866l357 682q16 32 35 65t30 51l11 17v5q-41 -5 -113 -5h-365v74h572v-53l-439 -836h-88z" />
    <glyph glyph-name="eightsuperior" unicode="&#x2078;" 
d="M84 1118q0 142 158 246q-113 70 -113 188q0 104 79.5 164t186.5 60q69 0 129 -24.5t100 -78.5t40 -127q0 -58 -28.5 -117t-52.5 -87t-42 -42q66 -38 101.5 -85t35.5 -117q0 -104 -85 -178t-208 -74q-121 0 -211 73t-90 199zM598 1096q0 31 -13.5 57.5t-32.5 45t-52 38
t-60.5 31.5t-69.5 30t-67 31q-21 -13 -41.5 -29.5t-44.5 -43t-38.5 -62.5t-14.5 -76q0 -90 65.5 -144t155.5 -54q81 0 147 51t66 125zM209 1552q0 -22 7 -42t16.5 -35t28 -30.5t34.5 -26t42 -23.5t44 -20.5t48.5 -20.5t47.5 -21q107 100 107 213q0 73 -57 114.5t-134 41.5
q-76 0 -130 -39.5t-54 -110.5z" />
    <glyph glyph-name="ninesuperior" unicode="&#x2079;" 
d="M82 1473q0 144 81 223.5t202 79.5q97 0 168.5 -55.5t107 -147t35.5 -205.5q0 -70 -13 -140t-42 -139.5t-72 -123t-108.5 -86.5t-145.5 -33q-42 0 -84.5 10t-64.5 20l-21 11l39 65q61 -32 133 -32q83 0 148.5 53.5t101 133.5t47.5 177h-4q-35 -42 -99.5 -70t-125.5 -28
q-123 0 -203 79t-80 208zM162 1473q0 -97 57 -155t148 -58q88 0 156.5 51t68.5 108q0 61 -26.5 125t-80.5 111t-120 47q-95 0 -149 -65t-54 -164z" />
    <glyph glyph-name="zeroinferior" unicode="&#x2080;" 
d="M385 -342q-303 0 -303 465t303 465t303 -465t-303 -465zM385 -268q223 0 223 391t-223 391t-223 -391q0 -69 6.5 -125.5t22 -107t40.5 -84.5t64 -54t90 -20z" />
    <glyph glyph-name="oneinferior" unicode="&#x2081;" 
d="M158 -322v74h196v666l2 45h-2q-8 -16 -47 -55l-90 -89l-53 56l190 192h78v-815h191v-74h-465z" />
    <glyph glyph-name="twoinferior" unicode="&#x2082;" 
d="M113 -322q-4 36 -4 56q0 67 25 124t65 96.5t88 75t96 68t88 65.5t65 77.5t25 95.5q0 74 -51.5 126t-134.5 52q-33 0 -65 -10.5t-54 -25.5t-39.5 -30t-26.5 -26l-8 -10l-49 53q4 5 10.5 13.5t29.5 29.5t49 37t67.5 29.5t85.5 13.5q126 0 196 -73t70 -179
q0 -62 -24.5 -114.5t-64 -89.5t-87 -70t-96 -65t-88.5 -65.5t-65.5 -79.5t-27.5 -100h469v-74h-544z" />
    <glyph glyph-name="threeinferior" unicode="&#x2083;" 
d="M377 -344q-55 0 -104 13.5t-80.5 33t-55 39.5t-33.5 34l-10 13l58 53q3 -5 8.5 -12.5t26.5 -26.5t45 -34t63.5 -27t83.5 -12q79 0 145 60t66 147q0 89 -66.5 142.5t-152.5 53.5h-66l-22 49l221 260q10 12 23 25t21 20l7 7v4q-37 -6 -78 -6h-336v73h523v-53l-263 -307
q46 -3 89.5 -18t86 -44.5t68 -82.5t25.5 -123q0 -117 -86.5 -199t-206.5 -82z" />
    <glyph glyph-name="fourinferior" unicode="&#x2084;" 
d="M494 -322v248h-441v54l455 587h63v-567h140v-74h-140v-248h-77zM166 0h328v301l6 133h-4q-35 -55 -72 -102l-258 -328v-4z" />
    <glyph glyph-name="fiveinferior" unicode="&#x2085;" 
d="M365 -342q-50 0 -95.5 14.5t-75 36t-52 42.5t-32.5 35l-10 15l66 43q3 -5 8 -12.5t23.5 -26.5t39.5 -34t55.5 -27t72.5 -12q96 0 162.5 64t66.5 157q0 91 -67 156t-162 65q-43 0 -84.5 -14t-61.5 -28l-20 -13l-54 20l54 428h422v-73h-357l-20 -187l-15 -88h4
q56 29 134 29q131 0 219 -86t88 -209q0 -124 -90.5 -209.5t-218.5 -85.5z" />
    <glyph glyph-name="sixinferior" unicode="&#x2086;" 
d="M406 -342q-145 0 -228.5 116.5t-83.5 291.5q0 70 13 140t42 139.5t72 123t108.5 86.5t145.5 33q42 0 84.5 -10t64.5 -20l21 -11l-39 -66q-61 33 -133 33q-83 0 -148.5 -53.5t-101 -133.5t-47.5 -177h4q35 42 100 70t126 28q123 0 202.5 -79t79.5 -208
q0 -144 -80.5 -223.5t-201.5 -79.5zM406 -268q95 0 148.5 65t53.5 164q0 97 -57 155t-148 58q-88 0 -156.5 -51t-68.5 -109q0 -61 26.5 -124.5t81 -110.5t120.5 -47z" />
    <glyph glyph-name="seveninferior" unicode="&#x2087;" 
d="M145 -324l357 682q16 32 35 65.5t30 50.5l11 18v4q-41 -4 -113 -4h-365v73h572v-53l-439 -836h-88z" />
    <glyph glyph-name="eightinferior" unicode="&#x2088;" 
d="M84 -68q0 142 158 246q-113 70 -113 189q0 104 79 163.5t187 59.5q69 0 129 -24.5t100 -78.5t40 -127q0 -45 -15.5 -89.5t-39 -76.5t-40.5 -51t-28 -28q65 -38 101 -85.5t36 -117.5q0 -104 -85 -178t-208 -74q-121 0 -211 73t-90 199zM598 -90q0 31 -13.5 57.5t-32.5 45
t-52 38t-60.5 31.5t-69.5 30t-67 31q-21 -13 -41.5 -29.5t-44.5 -43t-38.5 -62.5t-14.5 -76q0 -90 65.5 -144t155.5 -54q81 0 147 51t66 125zM209 367q0 -25 7.5 -46.5t24.5 -40.5t32.5 -32t45.5 -29t48.5 -24.5t56 -24.5t53.5 -23q107 100 107 213q0 73 -57 114.5
t-134 41.5q-76 0 -130 -39t-54 -110z" />
    <glyph glyph-name="nineinferior" unicode="&#x2089;" 
d="M82 285q0 144 81 223.5t202 79.5q97 0 168.5 -55.5t107 -147t35.5 -205.5q0 -70 -13 -140t-42 -139.5t-72 -123t-108.5 -86.5t-145.5 -33q-42 0 -84.5 10t-64.5 20l-21 11l39 65q61 -32 133 -32q83 0 148.5 53.5t101 133.5t47.5 177h-4q-35 -42 -99.5 -70t-125.5 -28
q-123 0 -203 79t-80 208zM162 285q0 -97 57 -155t148 -58q88 0 156.5 51t68.5 108q0 61 -26.5 125t-80.5 111t-120 47q-95 0 -149 -65t-54 -164z" />
    <glyph glyph-name="Euro" unicode="&#x20ac;" horiz-adv-x="1206" 
d="M92 559v82h111q-5 28 -4.5 86.5t6.5 95.5h-113v82h127q58 245 244.5 399t437.5 154q47 0 92.5 -5.5t67.5 -10.5l22 -6l-20 -86q-74 22 -162 22q-217 0 -375 -128.5t-213 -338.5h672l-16 -82h-672q-15 -81 -4 -182h643l-14 -82h-617q46 -222 208.5 -360t387.5 -138
q46 0 91 6.5t67 13.5l22 7l25 -84q-88 -29 -205 -29q-259 0 -448.5 163.5t-239.5 420.5h-121z" />
    <glyph glyph-name="trademark" unicode="&#x2122;" horiz-adv-x="1888" 
d="M879 541l71 893h72l258 -553q8 -18 15.5 -38.5t10.5 -32.5l3 -11h4q10 41 28 82l258 553h72l72 -893h-78l-57 671l2 58h-4l-260 -561h-70l-260 561h-4l2 -58l-58 -671h-77zM385 541v815h-328v78h738v-78h-330v-815h-80z" />
    <glyph glyph-name="minus" unicode="&#x2212;" horiz-adv-x="1228" 
d="M106 539v82h1016v-82h-1016z" />
    <glyph glyph-name="infinity" unicode="&#x221e;" horiz-adv-x="1005" 
d="M504 377q-140 0 -239 99.5t-99 238.5t99 237.5t239 98.5t238 -98.5t98 -237.5q0 -140 -98.5 -239t-237.5 -99z" />
    <glyph glyph-name="approxequal" unicode="&#x2248;" horiz-adv-x="1228" 
d="M174 657l-51 62q53 55 130 95t159 40q65 0 124 -22.5t96.5 -49t87 -49t97.5 -22.5q63 0 126.5 33t111.5 81l51 -61q-53 -55 -130 -95t-159 -40q-65 0 -124 22.5t-96.5 49t-87 49t-97.5 22.5q-63 0 -126.5 -33.5t-111.5 -81.5zM174 330l-51 61q53 55 130 95t159 40
q65 0 124 -22.5t96.5 -49t87 -49t97.5 -22.5q63 0 126.5 33.5t111.5 81.5l51 -62q-53 -55 -130 -95t-159 -40q-65 0 -124 22.5t-96.5 49t-87 49t-97.5 22.5q-63 0 -126.5 -33t-111.5 -81z" />
    <glyph glyph-name="notequal" unicode="&#x2260;" horiz-adv-x="1228" 
d="M266 188l140 187h-259v82h320l186 245h-506v82h568l184 244l68 -51l-146 -193h260v-82h-321l-187 -245h508v-82h-569l-178 -238z" />
    <glyph glyph-name="lessequal" unicode="&#x2264;" horiz-adv-x="1228" 
d="M147 543v73l900 404v-98l-773 -340v-4l773 -340v-99zM147 -231h900v-82h-900v82z" />
    <glyph glyph-name="greaterequal" unicode="&#x2265;" horiz-adv-x="1228" 
d="M184 139v99l772 340v4l-772 340v98l899 -404v-73zM182 -231h899v-82h-899v82z" />
    <glyph glyph-name="commaaccent" horiz-adv-x="686" 
d="M291 -135h98q12 -52 12 -96q0 -77 -45 -179h-80q37 95 37 160q0 56 -22 115z" />
    <glyph glyph-name="apple" horiz-adv-x="2314" 
d="M344 -10v311l-258 148v569l258 145v310l543 290l274 -145l271 145l542 -290v-310l254 -145v-569l-254 -148v-311l-542 -289l-271 145l-274 -145zM426 61l487 -258l248 136l242 -136l487 258v285l234 131v510l-234 135v279l-487 258l-242 -131l-248 131l-487 -258v-279
l-233 -135v-510l233 -131v-285zM496 131v248l-203 123v461l203 118v252l440 234l225 -121l219 121l439 -234v-252l204 -118v-461l-204 -123v-248l-439 -233l-219 118l-225 -118zM915 186h89v467h466v82h-466v393h407q34 0 46.5 -13t12.5 -46v-86h86v111q0 61 -26.5 88.5
t-91.5 27.5h-656v-82h133v-942z" />
    <glyph glyph-name="zero.tnum" horiz-adv-x="1138" 
d="M571 -25q-107 0 -190 37.5t-138 103t-90 161t-50 203.5t-15 237t15 236.5t50 202.5t90 160.5t138 103.5t190 38t190.5 -38t138 -103.5t90 -160.5t50.5 -202.5t15 -236.5q0 -163 -25 -292.5t-79.5 -233t-150.5 -160t-229 -56.5zM571 61q89 0 157.5 33t112.5 90.5t71.5 142
t39 179.5t11.5 211t-11.5 210.5t-39 179t-71.5 142t-112.5 90.5t-157.5 33t-157.5 -33t-112 -90.5t-71.5 -142t-39 -179t-11 -210.5q0 -147 19 -260.5t62 -205.5t121 -141t189 -49z" />
    <glyph glyph-name="one.tnum" horiz-adv-x="1138" 
d="M225 0v82h326v1167l2 72h-4q-15 -27 -76 -88l-170 -170l-61 59l309 312h88v-1352h317v-82h-731z" />
    <glyph glyph-name="two.tnum" horiz-adv-x="1138" 
d="M156 0q-6 40 -6 76q0 101 42 188t109.5 150.5t148.5 122t162.5 114.5t149 114.5t109.5 135t42 164.5q0 132 -90.5 219.5t-242.5 87.5q-64 0 -123.5 -21t-99 -51t-69.5 -60.5t-44 -51.5l-13 -21l-65 45q5 10 15.5 26.5t48.5 59t82 75t117 59t153 26.5q103 0 185 -32.5
t133.5 -87.5t78.5 -125t27 -148t-26 -148t-70 -124t-101.5 -104t-120.5 -93.5t-126 -86.5t-120.5 -89t-101.5 -95.5t-70 -111.5t-26 -131h784v-82h-872z" />
    <glyph glyph-name="three.tnum" horiz-adv-x="1138" 
d="M113 174l65 66q6 -7 17.5 -19t50 -43t80 -54.5t106.5 -43t131 -19.5q142 0 250.5 100t108.5 253q0 107 -56 186.5t-141.5 117.5t-185.5 38h-99l-24 61l401 469q14 16 30 32.5t25 25.5l9 8v4q-39 -4 -111 -4h-588v82h822v-62l-463 -534q57 0 116 -11t124.5 -41.5t116 -76
t83.5 -122t33 -173.5q0 -183 -134 -311t-321 -128q-76 0 -150 20.5t-125 49.5t-91.5 58.5t-60.5 50.5z" />
    <glyph glyph-name="four.tnum" horiz-adv-x="1138" 
d="M55 410v61l744 963h82v-942h213v-82h-213v-410h-88v410h-738zM178 492h615v671l6 129h-4q-35 -51 -72 -98l-545 -698v-4z" />
    <glyph glyph-name="five.tnum" horiz-adv-x="1138" 
d="M127 182l72 56q4 -7 12 -19t37.5 -42.5t64.5 -54t93.5 -42.5t123.5 -19q168 0 283 107.5t115 267.5q0 162 -115 270.5t-283 108.5q-73 0 -142.5 -21.5t-102.5 -43.5l-33 -21l-66 23l82 682h666v-82h-588l-51 -428l-14 -88h4q11 7 31.5 18t85 29t128.5 18
q205 0 347.5 -135.5t142.5 -329.5q0 -127 -66 -233t-178.5 -167t-245.5 -61q-78 0 -148.5 21.5t-115 52t-77.5 60.5t-47 51z" />
    <glyph glyph-name="six.tnum" horiz-adv-x="1138" 
d="M606 -25q-154 0 -269.5 91.5t-174 242.5t-58.5 336q0 109 21 219t69.5 218t118 191t175.5 134t233 51q65 0 127.5 -14t92.5 -28l30 -15l-43 -80q-10 6 -28 14.5t-73 22.5t-110 14q-97 0 -180 -38.5t-142 -102.5t-102.5 -150t-66.5 -178.5t-29 -189.5h4q60 90 169.5 143
t235.5 53q192 0 316.5 -125t124.5 -331q0 -113 -35.5 -205t-96.5 -151t-140.5 -90.5t-168.5 -31.5zM604 61q163 0 256.5 109t93.5 283q0 170 -97.5 270t-254.5 100q-159 0 -278 -91t-119 -193q0 -60 17.5 -126t53 -128.5t82.5 -112.5t111.5 -80.5t134.5 -30.5z" />
    <glyph glyph-name="seven.tnum" horiz-adv-x="1138" 
d="M270 0l598 1219q16 32 35 65t30 50l11 18v4q-41 -4 -113 -4h-696v82h907v-62l-680 -1372h-92z" />
    <glyph glyph-name="eight.tnum" horiz-adv-x="1138" 
d="M94 410q0 73 26.5 142t64 114.5t75 80.5t64.5 51l26 17q-186 113 -186 293q0 69 27.5 131t78.5 111.5t133 78.5t183 29q197 0 311.5 -100t114.5 -262q0 -62 -20 -126.5t-42.5 -107t-57.5 -88t-46 -57t-27 -27.5q101 -56 156 -129t55 -178q0 -169 -134 -288.5t-327 -119.5
q-91 0 -175 29t-151.5 82t-108 137.5t-40.5 186.5zM938 381q0 52 -23 96.5t-56.5 75t-90 62t-103.5 52t-117.5 50.5t-113.5 51q-15 -7 -37.5 -21.5t-61.5 -48t-70.5 -72t-55 -96.5t-23.5 -120q0 -105 56 -186.5t142.5 -122t184.5 -40.5q92 0 176 40t138.5 114.5t54.5 165.5z
M256 1108q0 -44 14.5 -82t43.5 -68.5t61.5 -54.5t81.5 -48t88 -41t97 -41.5t95 -41.5q20 19 41 42t58 73.5t60.5 116t23.5 133.5q0 126 -93 201t-241 75q-151 0 -240.5 -75.5t-89.5 -188.5z" />
    <glyph glyph-name="nine.tnum" horiz-adv-x="1138" 
d="M420 -25q-65 0 -127.5 14.5t-92.5 28.5l-30 15l43 80q10 -6 28 -14.5t73 -23t110 -14.5q97 0 180 38.5t142 103t102.5 150.5t66.5 178.5t29 189.5h-4q-60 -91 -169.5 -144t-235.5 -53q-192 0 -316.5 125.5t-124.5 331.5q0 113 35.5 205t96.5 150.5t140.5 90t168.5 31.5
q116 0 211.5 -53t158.5 -144.5t97 -213t34 -259.5q0 -90 -15.5 -182t-46 -184t-81.5 -172t-116.5 -142t-157.5 -97.5t-199 -35.5zM539 610q159 0 278 91.5t119 193.5q0 76 -28.5 158.5t-78.5 154t-127.5 118t-164.5 46.5q-163 0 -257 -108.5t-94 -282.5q0 -170 98 -270.5
t255 -100.5z" />
    <glyph glyph-name="hyphen.case" horiz-adv-x="811" 
d="M123 674v82h565v-82h-565z" />
    <glyph glyph-name="parenleft.case" horiz-adv-x="647" 
d="M524 -133h-90q-106 186 -165.5 415.5t-59.5 465.5q0 424 225 798h90q-231 -390 -231 -801q0 -475 231 -878z" />
    <glyph glyph-name="parenright.case" horiz-adv-x="647" 
d="M213 -133h-90q231 403 231 878q0 411 -231 801h90q225 -374 225 -798q0 -236 -59.5 -465.5t-165.5 -415.5z" />
    <glyph glyph-name="bracketleft.case" horiz-adv-x="626" 
d="M268 -133v1679h221v-82h-133v-1515h133v-82h-221z" />
    <glyph glyph-name="bracketright.case" horiz-adv-x="626" 
d="M358 1546v-1679h-221v82h133v1515h-133v82h221z" />
    <glyph glyph-name="braceleft.case" horiz-adv-x="747" 
d="M328 242v192q0 61 -18 109t-43.5 72t-51 39.5t-43.5 19.5l-18 4v82q7 1 19 4t42 19t52.5 40t41.5 72t19 109v165q0 99 23.5 172.5t55 110.5t74 59.5t70.5 27.5t55 5h19v-80h-13q-19 0 -39 -4t-50 -21.5t-52 -46.5t-38.5 -86.5t-16.5 -134.5v-190q0 -56 -16.5 -103
t-40.5 -75t-48 -47.5t-41 -27.5l-16 -7v-4q7 -2 17.5 -7t38.5 -25t49.5 -46.5t39 -75t17.5 -106.5v-217q0 -77 16.5 -134.5t38.5 -86.5t52 -46.5t50 -21.5t39 -4h13v-80q-7 -2 -19 -2q-27 0 -55 5t-70.5 27.5t-74 60t-55 111.5t-23.5 173z" />
    <glyph glyph-name="braceright.case" horiz-adv-x="747" 
d="M123 -53h12q19 0 39 4t50 21.5t52.5 46.5t39 86.5t16.5 134.5v217q0 58 16.5 106t40.5 75.5t48 46.5t41 25l16 7v4q-7 2 -17.5 7.5t-38.5 27t-49.5 48t-39 74t-17.5 103.5v190q0 77 -16.5 134.5t-39 86.5t-52.5 46.5t-50 21.5t-39 4h-12v80h18q27 0 55 -5t71 -27.5
t74.5 -59.5t55 -110.5t23.5 -172.5v-165q0 -61 18 -109t43.5 -72t51 -39.5t43.5 -19.5l18 -4v-82q-7 -1 -19 -4t-42 -19t-52.5 -40t-41.5 -72t-19 -109v-192q0 -99 -23.5 -173t-55 -111.5t-74.5 -60t-71 -27.5t-55 -5l-18 2v80z" />
    <glyph glyph-name="at.case" horiz-adv-x="1648" 
d="M174 717q0 152 57 290.5t152 238.5t226 159t274 59q127 0 222 -30.5t148.5 -83t79 -114.5t25.5 -134v-705h143v-82h-543q-164 0 -279.5 116.5t-115.5 281.5t115.5 283t279.5 118h308q-2 54 -23 100t-63 85t-115 61t-170 22q-130 0 -247 -52.5t-200.5 -141.5t-132.5 -212
t-49 -259q0 -183 83 -335t227.5 -239.5t318.5 -87.5v-86q-196 0 -362 99.5t-262.5 271.5t-96.5 377zM655 713q0 -131 92 -223.5t222 -92.5h297v635h-293q-133 0 -225.5 -94t-92.5 -225z" />
    <glyph glyph-name="guillemotleft.case" horiz-adv-x="1081" 
d="M813 281l-336 419l336 422h109l-336 -422l336 -419h-109zM485 281l-335 419l335 422h109l-336 -422l336 -419h-109z" />
    <glyph glyph-name="guillemotright.case" horiz-adv-x="1081" 
d="M487 281l336 419l-336 422h109l336 -422l-336 -419h-109zM160 281l336 419l-336 422h108l336 -422l-336 -419h-108z" />
    <glyph glyph-name="guilsinglleft.case" horiz-adv-x="753" 
d="M485 281l-335 419l335 422h109l-336 -422l336 -419h-109z" />
    <glyph glyph-name="guilsinglright.case" horiz-adv-x="753" 
d="M160 281l336 419l-336 422h108l336 -422l-336 -419h-108z" />
    <glyph glyph-name="endash.case" horiz-adv-x="1220" 
d="M123 662v81h975v-81h-975z" />
    <glyph glyph-name="emdash.case" horiz-adv-x="1630" 
d="M123 662v81h1384v-81h-1384z" />
    <glyph glyph-name="periodcentered.case" horiz-adv-x="628" 
d="M256 649v121h117v-121h-117z" />
    <glyph glyph-name="questiondown.case" horiz-adv-x="1005" 
d="M168 328q0 69 20.5 127.5t53 100.5t72 80.5t79.5 74.5t72.5 74.5t53 89.5t20.5 110v90h88v-90q0 -66 -20 -123.5t-52.5 -100.5t-71.5 -83t-78.5 -78t-72 -77.5t-52.5 -90t-20 -106.5q0 -112 84 -188.5t215 -76.5q67 0 132 21.5t97 43.5l31 21l47 -69q-5 -4 -14 -11
t-40 -25t-64.5 -31.5t-84 -24.5t-102.5 -11q-175 0 -284 100t-109 253zM522 1309v125h121v-125h-121z" />
    <glyph glyph-name="exclamdown.case" horiz-adv-x="669" 
d="M291 0v1075h88v-1075h-88zM272 1309v125h121v-125h-121z" />
    <glyph glyph-name="bullet.case" horiz-adv-x="876" 
d="M438 449q-112 0 -191 78.5t-79 191.5t79 191.5t191 78.5q113 0 192 -79t79 -191t-79 -191t-192 -79z" />
    <glyph glyph-name="zero.p_osf" horiz-adv-x="1200" 
d="M129 549q0 88 18.5 172t57.5 158.5t93.5 130t132.5 88t169 32.5t169 -32.5t132.5 -88t93.5 -130t57.5 -158.5t18.5 -172q0 -87 -18.5 -170t-57 -156.5t-93.5 -128.5t-132.5 -87t-169.5 -32t-169.5 32t-132.5 87t-93.5 128.5t-57 156.5t-18.5 170zM219 553
q0 -94 24.5 -181t70.5 -157.5t120 -113t166 -42.5t166 42.5t120 113t70.5 157.5t24.5 181t-24.5 181t-70.5 157.5t-120 113t-166 42.5t-166 -42.5t-120 -113t-70.5 -157.5t-24.5 -181z" />
    <glyph glyph-name="one.p_osf" horiz-adv-x="905" 
d="M143 0v80h326v838l2 98h-4q-33 -24 -80 -53l-240 -146l-41 64l363 225h86v-1026h287v-80h-699z" />
    <glyph glyph-name="two.p_osf" horiz-adv-x="1064" 
d="M127 0v66q193 130 316 224.5t210 181.5t123.5 161.5t36.5 152.5q0 128 -87 194.5t-222 66.5q-54 0 -108.5 -16.5t-93 -40.5t-70 -48t-46.5 -40l-16 -17l-55 61q6 7 17.5 19.5t51 44.5t82.5 56t110 44t136 20q100 0 178.5 -31t123 -81t67 -106.5t22.5 -114.5
q0 -175 -143.5 -337t-480.5 -380v-4q38 4 110 4h567v-80h-829z" />
    <glyph glyph-name="three.p_osf" horiz-adv-x="970" 
d="M-16 -76l65 60q5 -7 14.5 -17.5t42 -38.5t70 -49.5t97.5 -39t124 -17.5q91 0 171.5 38.5t133 115t52.5 174.5q0 77 -32 138t-87 98.5t-122.5 57t-143.5 19.5h-97l-24 65l393 437q14 16 30 31t25 22l9 8v4q-39 -4 -111 -4h-522v80h762v-57l-463 -502q47 0 95 -7t103.5 -23
t103 -46t87 -72t62 -106t22.5 -143q0 -122 -62.5 -217.5t-164.5 -145t-224 -49.5q-74 0 -144 19t-116 46.5t-81 55t-52 46.5z" />
    <glyph glyph-name="four.p_osf" horiz-adv-x="1175" 
d="M68 84v59l712 963h78v-942h232v-80h-232v-322h-86v322h-704zM186 164h586v674l6 129h-4q-35 -64 -72 -113z" />
    <glyph glyph-name="five.p_osf" horiz-adv-x="1060" 
d="M76 -49l71 49q4 -6 12.5 -16.5t38 -37.5t63.5 -47.5t89.5 -37.5t116.5 -17q102 0 189.5 39t144.5 120t57 190q0 107 -56.5 185.5t-141.5 115t-183 36.5q-70 0 -139 -19t-103 -39l-34 -19l-64 20l82 633h643v-80h-567l-49 -387l-15 -82h5q12 6 33 15.5t87 25.5t131 16
q89 0 170 -26.5t147 -76.5t105 -132t39 -184q0 -197 -137.5 -316t-341.5 -119q-76 0 -144.5 19.5t-112 48t-76 56.5t-46.5 48z" />
    <glyph glyph-name="six.p_osf" horiz-adv-x="1191" 
d="M147 586q0 105 21 210.5t69 209.5t117.5 183.5t175 129t232.5 49.5q65 0 127.5 -13t92.5 -27l30 -13l-43 -78q-10 5 -28 13t-73 21t-110 13q-120 0 -218.5 -55t-161 -146.5t-98.5 -201.5t-44 -230h4q60 95 169 146t238 51q192 0 316 -116t124 -308q0 -141 -61.5 -245
t-159.5 -154t-219 -50q-115 0 -210.5 48.5t-158 132t-97 194t-34.5 236.5zM246 496q0 -56 17.5 -116t53 -117t82.5 -103t111.5 -73.5t134.5 -27.5q164 0 258 101.5t94 263.5q0 156 -97.5 248t-256.5 92q-106 0 -199.5 -42t-145.5 -103.5t-52 -122.5z" />
    <glyph glyph-name="seven.p_osf" horiz-adv-x="1007" 
d="M205 -238l573 1141q15 30 32.5 61t27.5 46l10 16v4q-41 -4 -113 -4h-665v80h878v-57l-649 -1287h-94z" />
    <glyph glyph-name="eight.p_osf" horiz-adv-x="1181" 
d="M129 383q0 63 23.5 123.5t55 101t71 76t64 51.5t42.5 25q-190 108 -190 280q0 136 109 233t300 97q192 0 305 -94t113 -246q0 -59 -20 -119.5t-45 -101.5t-58 -80t-48 -53t-26 -23q104 -56 161.5 -125t57.5 -170q0 -159 -132 -271t-320 -112q-89 0 -171 27t-147.5 77.5
t-105 129t-39.5 174.5zM954 356q0 48 -22 90t-54 70.5t-87 58.5t-99 48.5t-114 46.5t-111 47q-19 -9 -42 -23t-62 -45.5t-69 -67t-52.5 -88.5t-22.5 -110q0 -98 54.5 -173.5t138.5 -113t180 -37.5q141 0 251.5 85t110.5 212zM285 1040q0 -41 13.5 -76t41.5 -63.5t58 -51
t77.5 -45t84 -38t93.5 -38.5t92 -38q13 10 29 24.5t46 49.5t53 71.5t41 89.5t18 105q0 118 -92 187t-236 69t-231.5 -70.5t-87.5 -175.5z" />
    <glyph glyph-name="nine.p_osf" horiz-adv-x="1191" 
d="M223 -131q10 -5 28 -13t73 -21t110 -13q120 0 218.5 55t161 146.5t98.5 201.5t44 230h-4q-60 -95 -169 -146t-238 -51q-192 0 -316.5 116t-124.5 308q0 107 35.5 193t96.5 141t140.5 84.5t168.5 29.5q153 0 268 -83.5t173 -220.5t58 -306q0 -105 -21 -210.5t-69 -209.5
t-117 -183.5t-174.5 -129t-232.5 -49.5q-65 0 -127.5 13t-92.5 27l-30 13zM549 342q106 0 199.5 42t145.5 103.5t52 122.5q0 56 -17.5 116t-53 117t-82.5 103t-111.5 73.5t-134.5 27.5q-164 0 -258 -101.5t-94 -263.5q0 -156 97.5 -248t256.5 -92z" />
    <glyph glyph-name="zero.t_osf" horiz-adv-x="1138" 
d="M100 549q0 88 18.5 172t57.5 158.5t93.5 130t132.5 88t169 32.5t169 -32.5t132.5 -88t93.5 -130t57.5 -158.5t18.5 -172q0 -87 -18.5 -170t-57 -156.5t-93.5 -128.5t-132.5 -87t-169.5 -32t-169.5 32t-132.5 87t-93.5 128.5t-57 156.5t-18.5 170zM190 553
q0 -94 24.5 -181t70.5 -157.5t120 -113t166 -42.5t166 42.5t120 113t70.5 157.5t24.5 181t-24.5 181t-70.5 157.5t-120 113t-166 42.5t-166 -42.5t-120 -113t-70.5 -157.5t-24.5 -181z" />
    <glyph glyph-name="one.t_osf" horiz-adv-x="1138" 
d="M281 0v80h325v838l2 98h-4q-33 -24 -80 -53l-239 -146l-41 64l362 225h86v-1026h287v-80h-698z" />
    <glyph glyph-name="two.t_osf" horiz-adv-x="1138" 
d="M182 0v66q193 130 316 224.5t210 181.5t123.5 161.5t36.5 152.5q0 128 -87 194.5t-222 66.5q-54 0 -108.5 -16.5t-93 -40.5t-70 -48t-47.5 -40l-15 -17l-55 61q6 7 17.5 19.5t51 44.5t82.5 56t110 44t136 20q100 0 178.5 -31t123 -81t67 -106.5t22.5 -114.5
q0 -175 -143.5 -337t-480.5 -380v-4q38 4 110 4h568v-80h-830z" />
    <glyph glyph-name="three.t_osf" horiz-adv-x="1138" 
d="M119 -76l65 60q5 -7 14.5 -17.5t42 -38.5t70 -49.5t97.5 -39t124 -17.5q91 0 171.5 38.5t133 115t52.5 174.5q0 77 -32 138t-87 98.5t-122.5 57t-143.5 19.5h-96l-25 65l393 437q14 16 30 31t25 22l9 8v4q-39 -4 -111 -4h-522v80h762v-57l-463 -502q47 0 95 -7t103.5 -23
t103 -46t87 -72t62 -106t22.5 -143q0 -122 -62.5 -217.5t-164.5 -145t-224 -49.5q-74 0 -144 19t-116 46.5t-81 55t-51 46.5z" />
    <glyph glyph-name="four.t_osf" horiz-adv-x="1138" 
d="M70 84v59l712 963h78v-942h232v-80h-232v-322h-86v322h-704zM188 164h586v674l6 129h-4q-34 -64 -71 -113z" />
    <glyph glyph-name="five.t_osf" horiz-adv-x="1138" 
d="M131 -49l72 49q4 -6 12 -16.5t37.5 -37.5t63.5 -47.5t89.5 -37.5t116.5 -17q102 0 189.5 39t144.5 120t57 190q0 107 -56.5 185.5t-141.5 115t-183 36.5q-70 0 -139 -19t-103 -39l-34 -19l-63 20l81 633h644v-80h-568l-49 -387l-14 -82h4q12 6 33.5 15.5t87.5 25.5
t131 16q89 0 170 -26.5t147 -76.5t105 -132t39 -184q0 -197 -138 -316t-342 -119q-76 0 -144.5 19.5t-112 48t-76 56.5t-46.5 48z" />
    <glyph glyph-name="six.t_osf" horiz-adv-x="1138" 
d="M100 586q0 105 21 210.5t69 209.5t117.5 183.5t175 129t232.5 49.5q65 0 127.5 -13t92.5 -27l30 -13l-43 -78q-10 5 -28 13t-73 21t-110 13q-97 0 -180.5 -36.5t-142.5 -97.5t-103 -143t-67.5 -171.5t-29.5 -184.5h5q60 95 169 146t238 51q192 0 316 -116t124 -308
q0 -141 -61.5 -245t-159.5 -154t-219 -50q-115 0 -210.5 48.5t-158 132t-97 194t-34.5 236.5zM199 496q0 -56 17.5 -116t53 -117t82.5 -103t111.5 -73.5t134.5 -27.5q164 0 258 101.5t94 263.5q0 156 -97.5 248t-256.5 92q-106 0 -199.5 -42t-145.5 -103.5t-52 -122.5z" />
    <glyph glyph-name="seven.t_osf" horiz-adv-x="1138" 
d="M268 -238l574 1141q15 30 32 61t27 46l10 16v4q-40 -4 -112 -4h-666v80h879v-57l-650 -1287h-94z" />
    <glyph glyph-name="eight.t_osf" horiz-adv-x="1138" 
d="M109 383q0 63 23.5 123.5t55 101t71 76t64 51.5t42.5 25q-191 108 -191 280q0 136 109.5 233t300.5 97q192 0 304.5 -94t112.5 -246q0 -59 -20 -119.5t-45 -101.5t-57.5 -80t-47.5 -53t-26 -23q104 -56 161.5 -125t57.5 -170q0 -104 -60 -192t-164.5 -139.5t-228.5 -51.5
q-89 0 -171 27t-147.5 77.5t-104.5 129t-39 174.5zM934 356q0 48 -22.5 90t-54 70.5t-86.5 58.5t-99.5 48.5t-114.5 46.5t-111 47q-19 -9 -42 -23t-62 -45.5t-68.5 -67t-52 -88.5t-22.5 -110q0 -98 54.5 -173.5t138 -113t179.5 -37.5q141 0 252 85t111 212zM264 1040
q0 -41 13.5 -76t41.5 -63.5t58.5 -51t78 -45t84 -38t93.5 -38.5t92 -38q18 14 40.5 36.5t59.5 68t61.5 108.5t24.5 127q0 118 -91.5 187t-235.5 69t-232 -70.5t-88 -175.5z" />
    <glyph glyph-name="nine.t_osf" horiz-adv-x="1138" 
d="M217 -131q10 -5 28 -13t73 -21t110 -13q120 0 218.5 55t161 146.5t98.5 201.5t44 230h-4q-60 -95 -169 -146t-238 -51q-192 0 -316.5 116t-124.5 308q0 107 35.5 193t96.5 141t140.5 84.5t168.5 29.5q153 0 268 -83.5t173 -220.5t58 -306q0 -105 -21 -210.5t-69 -209.5
t-117 -183.5t-174.5 -129t-232.5 -49.5q-65 0 -127.5 13t-92.5 27l-30 13zM543 342q106 0 199.5 42t145.5 103.5t52 122.5q0 56 -17.5 116t-53 117t-82.5 103t-111.5 73.5t-134.5 27.5q-164 0 -258.5 -101.5t-94.5 -263.5q0 -156 98 -248t257 -92z" />
    <glyph glyph-name="dollar.osf" horiz-adv-x="1050" 
d="M117 176l67 60q5 -7 15.5 -19t46 -42.5t75 -54t101.5 -42.5t127 -19q117 0 197.5 61.5t80.5 170.5q0 61 -36 107.5t-93 76.5t-126 56.5t-138.5 56t-126.5 66t-93 95t-36 134.5q0 140 93.5 221t236.5 92v172h88v-172q56 -4 106.5 -18.5t82.5 -32t56.5 -34t34.5 -27.5
l11 -11l-56 -67l-11.5 11.5t-35 26t-58 33t-81 26t-104.5 11.5q-115 0 -194 -55.5t-79 -167.5q0 -55 28 -98.5t73.5 -71t104 -54.5t119.5 -47.5t119.5 -51t104 -65t73.5 -89.5t28 -123q0 -134 -97.5 -221t-249.5 -93v-190h-88v193q-49 5 -96 18.5t-82.5 31t-67 38t-53 39.5
t-37 34.5t-23.5 24.5z" />
    <glyph glyph-name="cent.osf" horiz-adv-x="1177" 
d="M131 610q0 204 128 337.5t323 152.5v178h88v-176q64 -3 123 -20.5t97.5 -40.5t68.5 -45t43 -37l14 -15l-45 -72q-5 6 -13.5 16t-40 35.5t-67 45t-93 35.5t-118.5 16q-114 0 -208.5 -50t-152 -144.5t-57.5 -215.5t57.5 -215.5t152 -144t208.5 -49.5q61 0 118 15t94 36.5
t65.5 43.5t41.5 37l13 15l45 -72q-5 -6 -14.5 -16t-42 -36t-69.5 -46.5t-96.5 -39t-123.5 -21.5v-168h-88v170q-195 19 -323 152.5t-128 338.5z" />
    <glyph glyph-name="sterling.osf" horiz-adv-x="1236" 
d="M127 0v80h135v428h-94v80h94v248q0 154 116 258t296 104q55 0 108 -10.5t90 -26t66 -31t43 -26.5l14 -10l-59 -68q-4 4 -12.5 9.5t-35.5 21t-56 27t-72.5 21t-87.5 9.5q-152 0 -238 -83.5t-86 -203.5v-239h498v-80h-498v-428h719v-80h-940z" />
    <glyph glyph-name="yen.osf" horiz-adv-x="1185" 
d="M207 567v82h233l-325 529h100l289 -476l88 -155h4q45 85 88 155l289 476h100l-323 -529h227v-82h-279l-59 -98v-66h338v-81h-338v-322h-88v322h-344v81h344v66l-62 98h-282z" />
    <glyph glyph-name="florin.osf" horiz-adv-x="1163" 
d="M82 -172q55 -10 127 -10q29 0 57.5 5t65.5 24t65 49.5t50.5 87t29.5 131.5l49 563h-196v78h202l21 235q8 96 39 168.5t69.5 111.5t88.5 62.5t87 30t74 6.5q38 0 79.5 -3.5t63.5 -6.5l23 -4v-80q-86 14 -168 14q-30 0 -58 -5t-65 -23.5t-64.5 -49.5t-50.5 -87.5
t-30 -131.5l-23 -237h273v-78h-279l-49 -561q-6 -70 -24 -128t-42 -96.5t-55.5 -67.5t-61 -45t-63.5 -26t-59.5 -13t-50.5 -3q-34 0 -65 2.5t-46 5.5l-14 2v80z" />
    <glyph glyph-name="Euro.osf" horiz-adv-x="1271" 
d="M133 426v82h133q-6 44 -6 86q0 40 2 63h-129v82h143q21 94 69.5 175t124 145.5t186 101.5t243.5 37q45 0 92 -6t71 -12l25 -6l-22 -84q-82 22 -166 22q-214 0 -348 -104.5t-180 -268.5h616l-18 -82h-615q-4 -25 -4 -73l4 -76h590l-18 -82h-553q46 -161 181 -263t345 -102
q46 0 91 6.5t67 13.5l22 7l25 -84q-88 -29 -205 -29q-127 0 -234 35.5t-182.5 98t-126.5 143t-75 174.5h-148z" />
    <glyph glyph-name="zero.numerator" 
d="M385 524q-303 0 -303 465t303 465t303 -465t-303 -465zM385 598q223 0 223 391t-223 391t-223 -391q0 -69 6.5 -125.5t22 -107t40.5 -84.5t64 -54t90 -20z" />
    <glyph glyph-name="one.numerator" 
d="M158 545v73h196v666l2 45h-2q-8 -16 -47 -55l-90 -88l-53 55l190 193h78v-816h191v-73h-465z" />
    <glyph glyph-name="two.numerator" 
d="M113 545q-4 36 -4 55q0 67 25 124t65 96.5t88 75t96 68t88 65.5t65 77.5t25 95.5q0 74 -51.5 126t-134.5 52q-52 0 -100 -25.5t-71 -50.5l-22 -26l-49 53q4 5 10.5 13.5t29.5 29.5t49 37t67.5 29.5t85.5 13.5q126 0 196 -73t70 -179q0 -62 -24.5 -114.5t-64 -89.5
t-87 -70t-96 -65t-88.5 -65.5t-65.5 -79.5t-27.5 -100h469v-73h-544z" />
    <glyph glyph-name="three.numerator" 
d="M377 524q-55 0 -104 13.5t-80.5 33t-55 39.5t-33.5 34l-10 13l58 54q3 -5 8.5 -12.5t26.5 -27t45 -34.5t63.5 -27t83.5 -12q79 0 145 60t66 147q0 89 -66.5 142.5t-152.5 53.5h-66l-22 50l221 260q10 12 23 24.5t21 19.5l7 7v4q-37 -6 -78 -6h-336v74h523v-54l-263 -307
q46 -3 89.5 -18t86 -44.5t68 -82.5t25.5 -123q0 -117 -86.5 -199t-206.5 -82z" />
    <glyph glyph-name="four.numerator" 
d="M494 545v248h-441v53l455 588h63v-568h140v-73h-140v-248h-77zM166 866h328v301l6 133h-4q-35 -55 -72 -102l-258 -328v-4z" />
    <glyph glyph-name="five.numerator" 
d="M365 524q-50 0 -95.5 15t-75 36t-52 42t-32.5 36l-10 15l66 43q3 -5 8 -12.5t23.5 -27t39.5 -34.5t55.5 -27t72.5 -12q96 0 162.5 64t66.5 157q0 91 -67 156t-162 65q-43 0 -84.5 -14t-61.5 -28l-20 -13l-54 21l54 428h422v-74h-357l-20 -186l-15 -89h4q56 29 134 29
q131 0 219 -86t88 -209q0 -124 -90.5 -209.5t-218.5 -85.5z" />
    <glyph glyph-name="six.numerator" 
d="M406 524q-145 0 -228.5 116.5t-83.5 291.5q0 70 13 140t42 139.5t72 123t108.5 86.5t145.5 33q42 0 84.5 -10t64.5 -20l21 -11l-39 -65q-61 32 -133 32q-83 0 -148.5 -53.5t-101 -133.5t-47.5 -177h4q35 42 100 70t126 28q123 0 202.5 -79t79.5 -208q0 -144 -80.5 -223.5
t-201.5 -79.5zM406 598q95 0 148.5 65t53.5 164q0 97 -57 155t-148 58q-88 0 -156.5 -51t-68.5 -108q0 -61 26.5 -125t81 -111t120.5 -47z" />
    <glyph glyph-name="seven.numerator" 
d="M145 545l357 682q16 32 35 65.5t30 50.5l11 17v4q-41 -4 -113 -4h-365v74h572v-54l-439 -835h-88z" />
    <glyph glyph-name="eight.numerator" 
d="M84 795q0 141 158 245q-113 70 -113 189q0 104 79 163.5t187 59.5q69 0 129 -24.5t100 -78t40 -126.5q0 -58 -28.5 -117t-52.5 -87t-42 -42q65 -38 101 -85.5t36 -117.5q0 -104 -85 -178t-208 -74q-77 0 -144.5 30t-112 94t-44.5 149zM598 772q0 31 -13.5 58t-32.5 45.5
t-52 37.5t-60.5 31t-69.5 31t-67 31q-21 -13 -41.5 -29.5t-44.5 -43t-38.5 -62.5t-14.5 -76q0 -90 66 -144.5t155 -54.5q81 0 147 51t66 125zM209 1229q0 -22 7 -42t16.5 -35t28 -30.5t34.5 -26t42 -23.5t44 -20.5t48.5 -20.5t47.5 -21q107 100 107 213q0 73 -57 114
t-134 41q-76 0 -130 -39t-54 -110z" />
    <glyph glyph-name="nine.numerator" 
d="M82 1151q0 144 81 223.5t202 79.5q145 0 228 -116t83 -291q0 -70 -13 -140.5t-42.5 -140t-72 -123t-108 -86.5t-145.5 -33q-42 0 -84.5 10t-64.5 20l-21 11l39 66q61 -33 133 -33q83 0 148.5 53.5t101 134t47.5 177.5h-4q-35 -42 -100 -70.5t-125 -28.5q-123 0 -203 79
t-80 208zM162 1151q0 -97 57 -155t148 -58q88 0 156.5 51t68.5 109q0 61 -26.5 124.5t-80.5 110.5t-120 47q-95 0 -149 -65t-54 -164z" />
    <glyph glyph-name="zero.denominator" 
d="M385 -20q-303 0 -303 464q0 465 303 465t303 -465q0 -464 -303 -464zM385 53q223 0 223 391q0 392 -223 392t-223 -392q0 -69 6.5 -125.5t22 -107t40.5 -84.5t64 -54t90 -20z" />
    <glyph glyph-name="one.denominator" 
d="M158 0v74h196v665l2 45h-2q-8 -16 -47 -55l-90 -88l-53 55l190 193h78v-815h191v-74h-465z" />
    <glyph glyph-name="two.denominator" 
d="M113 0q-4 36 -4 55q0 67 25 124t65 96.5t88 75t96 68t88 65.5t65 77.5t25 95.5q0 74 -52 126.5t-134 52.5q-52 0 -100 -26t-71 -52l-22 -25l-49 53q4 5 10.5 13.5t29.5 29.5t49 37t67.5 29.5t85.5 13.5q126 0 196 -73t70 -179q0 -62 -24.5 -114.5t-64 -89t-87 -70
t-96 -65t-88.5 -65t-65.5 -79.5t-27.5 -100h469v-74h-544z" />
    <glyph glyph-name="three.denominator" 
d="M377 -20q-55 0 -104 13.5t-80.5 33t-55 39.5t-33.5 34l-10 13l58 53q3 -5 8.5 -12.5t26.5 -27t45 -34.5t63.5 -27t83.5 -12q79 0 145 60t66 147q0 89 -66.5 143t-152.5 54h-66l-22 49l221 260q10 12 23 25t21 19l7 7v4q-37 -6 -78 -6h-336v74h523v-53l-263 -308
q46 -3 89.5 -18t86 -44.5t68 -82.5t25.5 -123q0 -117 -86.5 -198.5t-206.5 -81.5z" />
    <glyph glyph-name="four.denominator" 
d="M494 0v248h-441v53l455 588h63v-567h140v-74h-140v-248h-77zM166 322h328v301l6 133h-4q-35 -56 -72 -103l-258 -327v-4z" />
    <glyph glyph-name="five.denominator" 
d="M365 -20q-50 0 -95.5 14.5t-75 35.5t-52 42.5t-32.5 35.5l-10 15l66 43q3 -5 8 -12.5t23.5 -27t39.5 -34.5t55.5 -27t72.5 -12q96 0 162.5 64t66.5 157q0 91 -67 156.5t-162 65.5q-43 0 -84.5 -14t-61.5 -28l-20 -14l-54 21l54 428h422v-74h-357l-20 -186l-15 -88h4
q56 28 134 28q131 0 219 -86t88 -209q0 -124 -90.5 -209t-218.5 -85z" />
    <glyph glyph-name="six.denominator" 
d="M406 -20q-145 0 -228.5 116t-83.5 291q0 70 13 140t42 139.5t72 123t108.5 86.5t145.5 33q42 0 84.5 -10.5t64.5 -20.5l21 -10l-39 -65q-61 33 -133 33q-83 0 -148.5 -53.5t-101 -134t-47.5 -177.5h4q35 42 100 70t126 28q123 0 202.5 -78.5t79.5 -207.5
q0 -144 -80.5 -223.5t-201.5 -79.5zM406 53q95 0 148.5 65.5t53.5 164.5q0 97 -57 155t-148 58q-88 0 -156.5 -51t-68.5 -109q0 -61 26.5 -125t81 -111t120.5 -47z" />
    <glyph glyph-name="seven.denominator" 
d="M145 0l357 682q16 32 35 65t30 51l11 17v4q-41 -4 -113 -4h-365v74h572v-53l-439 -836h-88z" />
    <glyph glyph-name="eight.denominator" 
d="M84 252q0 142 158 246q-113 70 -113 188q0 104 79 163.5t187 59.5q69 0 129 -24.5t100 -78t40 -126.5q0 -58 -28.5 -117t-52.5 -87t-42 -42q65 -38 101 -85.5t36 -117.5q0 -104 -85 -177.5t-208 -73.5q-121 0 -211 73t-90 199zM598 229q0 31 -13.5 58t-32.5 45.5
t-52 37.5t-60.5 31t-69.5 31t-67 31q-21 -13 -41.5 -29.5t-44.5 -43t-38.5 -62.5t-14.5 -76q0 -90 66 -144.5t155 -54.5q81 0 147 51t66 125zM209 686q0 -22 7 -42t16.5 -35t28 -30.5t34.5 -26t42 -23.5t44 -20.5t48.5 -20.5t47.5 -21q107 100 107 213q0 73 -57 114.5
t-134 41.5q-76 0 -130 -39.5t-54 -110.5z" />
    <glyph glyph-name="nine.denominator" 
d="M82 606q0 144 81 223.5t202 79.5q145 0 228 -116t83 -291q0 -70 -13 -140t-42 -139.5t-72 -123t-108.5 -86.5t-145.5 -33q-42 0 -84.5 10t-64.5 20l-21 10l39 66q61 -33 133 -33q83 0 148.5 53.5t101 134t47.5 177.5h-4q-35 -42 -100 -70.5t-125 -28.5q-123 0 -203 79
t-80 208zM162 606q0 -97 57 -155t148 -58q88 0 156.5 51t68.5 109q0 61 -26.5 125t-80.5 111t-120 47q-95 0 -149 -65.5t-54 -164.5z" />
    </font>
</defs>
</svg>
