<?xml version="1.0" standalone="no"?>
<!DOCTYPE svg PUBLIC "-//W3C//DTD SVG 1.1//EN" "http://www.w3.org/Graphics/SVG/1.1/DTD/svg11.dtd" >
<svg xmlns="http://www.w3.org/2000/svg" xmlns:xlink="http://www.w3.org/1999/xlink" version="1.1">
<metadata>
Created by FontForge 20170731 at Mon Mar 14 11:36:08 2022
 By Aleksey,,,
Copyright (c) 2008 by Jos Buivenga. All rights reserved.
</metadata>
<defs>
<font id="MuseoSans-300" horiz-adv-x="782" >
  <font-face 
    font-family="Museo Sans 300"
    font-weight="300"
    font-stretch="normal"
    units-per-em="2048"
    panose-1="2 0 0 0 0 0 0 0 0 0"
    ascent="1536"
    descent="-512"
    x-height="1030"
    cap-height="1440"
    bbox="-242 -430 2228 1808"
    underline-thickness="102"
    underline-position="-307"
    unicode-range="U+0020-FB04"
  />
<missing-glyph horiz-adv-x="1044" 
d="M10 0v1434h1024v-1434h-1024zM522 809l348 522h-696zM584 717l348 -522v1044zM113 195l348 522l-348 522v-1044zM174 102h696l-348 523z" />
    <glyph glyph-name="f_f" unicode="ff" horiz-adv-x="1310" 
d="M870 0v913h-516v-913h-139v913h-129v117h129v37q0 97 26.5 170t64.5 112.5t90 63.5t92.5 30.5t82.5 6.5l64 -4v-125q-20 4 -49 4t-55.5 -4.5t-60 -20.5t-58 -42.5t-41.5 -76t-17 -114.5v-37h516v37q0 81 18 146t49 105t67 67.5t79 41t76.5 18.5t67.5 5l63 -4v-125
q-20 4 -49 4t-55.5 -4.5t-60 -20.5t-57.5 -42.5t-41 -76t-17 -114.5v-37h264v-117h-264v-913h-140z" />
    <glyph glyph-name="fi" unicode="fi" horiz-adv-x="1130" 
d="M823 0v913h-469v-913h-139v913h-129v117h129v37q0 97 26.5 170t64.5 112.5t90 63.5t92.5 30.5t82.5 6.5l64 -4v-125q-20 4 -49 4t-55.5 -4.5t-60 -20.5t-58 -42.5t-41.5 -76t-17 -114.5v-37h609v-1030h-140zM819 1266v174h146v-174h-146z" />
    <glyph glyph-name="fl" unicode="fl" horiz-adv-x="1161" 
d="M215 0v901h-129v117h129v49q0 97 26.5 170t64.5 112.5t90 63.5t92.5 30.5t82.5 6.5l64 -4v-125q-20 4 -49 4t-55.5 -4.5t-60 -20.5t-58 -42.5t-41.5 -76t-17 -114.5v-49h264v-117h-264v-901h-139zM813 244v1196h139v-1166q0 -91 32.5 -123t82.5 -32l35 2v-125
q-24 -4 -51 -4q-31 0 -58.5 4.5t-62 20t-59 41.5t-41.5 74t-17 112z" />
    <glyph glyph-name="f_f_i" unicode="ffi" horiz-adv-x="1785" 
d="M870 0v913h-516v-913h-139v913h-129v117h129v37q0 97 26.5 170t64.5 112.5t90 63.5t92.5 30.5t82.5 6.5l64 -4v-125q-20 4 -49 4t-55.5 -4.5t-60 -20.5t-58 -42.5t-41.5 -76t-17 -114.5v-37h516v37q0 81 18 146t49 105t67 67.5t79 41t76.5 18.5t67.5 5l63 -4v-125
q-20 4 -49 4t-55.5 -4.5t-60 -20.5t-57.5 -42.5t-41 -76t-17 -114.5v-37h608v-1030h-139v913h-469v-913h-140zM1475 1266v174h145v-174h-145z" />
    <glyph glyph-name="f_f_l" unicode="ffl" horiz-adv-x="1816" 
d="M870 0v913h-516v-913h-139v913h-129v117h129v37q0 97 26.5 170t64.5 112.5t90 63.5t92.5 30.5t82.5 6.5l64 -4v-125q-20 4 -49 4t-55.5 -4.5t-60 -20.5t-58 -42.5t-41.5 -76t-17 -114.5v-37h516v37q0 81 18 146t49 105t67 67.5t79 41t76.5 18.5t67.5 5l63 -4v-125
q-20 4 -49 4t-55.5 -4.5t-60 -20.5t-57.5 -42.5t-41 -76t-17 -114.5v-37h264v-117h-264v-913h-140zM1468 244v1196h140v-1166q0 -91 32 -123t82 -32l35 2v-125q-24 -4 -51 -4q-31 0 -58.5 4.5t-62 20t-59 41.5t-41.5 74t-17 112z" />
    <glyph glyph-name="f_j" unicode="fj" horiz-adv-x="1130" 
d="M215 0v913h-129v117h129v37q0 97 26.5 170t64.5 112.5t90 63.5t92.5 30.5t82.5 6.5l64 -4v-125q-20 4 -49 4t-55.5 -4.5t-60 -20.5t-58 -42.5t-41.5 -76t-17 -114.5v-37h609v-1069q0 -97 -27 -170.5t-65.5 -112.5t-91 -63t-93 -30.5t-82.5 -6.5q-16 0 -31.5 1.5
t-22.5 2.5l-7 2v121q18 -2 45 -2q29 0 55.5 4.5t61 21t59 43.5t42 77.5t17.5 117.5v946h-469v-913h-139zM821 1266v174h144v-174h-144z" />
    <glyph glyph-name=".notdef" horiz-adv-x="1044" 
d="M10 0v1434h1024v-1434h-1024zM522 809l348 522h-696zM584 717l348 -522v1044zM113 195l348 522l-348 522v-1044zM174 102h696l-348 523z" />
    <glyph glyph-name=".null" horiz-adv-x="0" 
 />
    <glyph glyph-name="nonmarkingreturn" horiz-adv-x="682" 
 />
    <glyph glyph-name="space" unicode=" " horiz-adv-x="550" 
 />
    <glyph glyph-name="exclam" unicode="!" horiz-adv-x="628" 
d="M248 377l-6 1063h143l-6 -1063h-131zM238 0v158h157v-158h-157z" />
    <glyph glyph-name="quotedbl" unicode="&#x22;" horiz-adv-x="651" 
d="M389 1114v346h121v-346h-121zM141 1114v346h121v-346h-121z" />
    <glyph glyph-name="numbersign" unicode="#" horiz-adv-x="1482" 
d="M317 0l70 399h-291l21 115h289l71 401h-289l19 115h291l71 410h125l-71 -410h354l72 410h125l-72 -410h287l-21 -115h-287l-69 -401h284l-18 -115h-287l-69 -399h-125l69 399h-354l-70 -399h-125zM532 514h353l71 401h-354z" />
    <glyph glyph-name="dollar" unicode="$" horiz-adv-x="1140" 
d="M125 160l86 108q6 -6 17.5 -17t49.5 -38t79 -47.5t104 -37.5t127 -17q122 0 204 67.5t82 181.5q0 71 -40 126.5t-104 93t-141 71t-154 71t-141 82.5t-104 114.5t-40 158.5q0 143 104 251.5t272 129.5v195h115v-191q62 -3 120 -18.5t96.5 -35t68 -38.5t43.5 -32l14 -13
l-70 -119q-5 5 -15 13.5t-42 29.5t-66.5 37t-87 29.5t-104.5 13.5q-134 0 -218.5 -74t-84.5 -174q0 -53 24.5 -96t66.5 -74t96.5 -58.5t114.5 -53t119.5 -53t114 -63t96.5 -78.5t66.5 -104.5t24.5 -135.5q0 -153 -102 -260.5t-275 -124.5v-191h-115v191q-73 6 -141 26.5
t-113 46t-80 50t-51 41.5z" />
    <glyph glyph-name="percent" unicode="%" horiz-adv-x="1495" 
d="M401 895q-120 0 -203 83t-83 202q0 118 83.5 201t202.5 83q120 0 204.5 -83.5t84.5 -200.5q0 -118 -84.5 -201.5t-204.5 -83.5zM127 0l1098 1440h145l-1096 -1440h-147zM401 1010q70 0 119 49.5t49 120.5q0 70 -49 120t-119 50t-117.5 -50t-47.5 -120q0 -71 47.5 -120.5
t117.5 -49.5zM807 258q0 119 83.5 203t203.5 84t204 -84t84 -203q0 -117 -84 -200t-204 -83t-203.5 83t-83.5 200zM930 260q0 -71 47 -120.5t117 -49.5t119 49.5t49 120.5q0 70 -49 120t-119 50t-117 -50t-47 -120z" />
    <glyph glyph-name="ampersand" unicode="&#x26;" horiz-adv-x="1380" 
d="M123 397q0 129 70 235.5t192 143.5v4q-4 1 -11.5 4t-28 14.5t-39.5 26.5t-42.5 41.5t-40 58t-28 77.5t-11.5 98q0 166 117.5 265t314.5 99q31 0 72 -5t66 -10l26 -5l-41 -119q-67 14 -118 14q-125 0 -207 -66.5t-82 -180.5q0 -33 6 -64.5t26 -68.5t52 -64t90 -45.5
t135 -18.5h303v203h141v-203h195v-126h-195v-211q0 -253 -127.5 -386t-349.5 -133q-214 0 -349.5 120t-135.5 302zM268 406q0 -127 92.5 -212t247.5 -85q159 0 247.5 94.5t88.5 294.5v207h-303q-183 0 -278 -80t-95 -219z" />
    <glyph glyph-name="quotesingle" unicode="'" horiz-adv-x="403" 
d="M141 1114v346h121v-346h-121z" />
    <glyph glyph-name="parenleft" unicode="(" horiz-adv-x="593" 
d="M395 -195q-109 188 -170 417t-61 468q0 428 231 805h129q-231 -393 -231 -805q0 -471 231 -885h-129z" />
    <glyph glyph-name="parenright" unicode=")" horiz-adv-x="591" 
d="M199 -195h-129q231 409 231 885q0 412 -231 805h129q231 -377 231 -805q0 -239 -61 -468t-170 -417z" />
    <glyph glyph-name="asterisk" unicode="*" horiz-adv-x="964" 
d="M305 690l-108 78l192 246v4l-301 86l41 129l295 -109l-12 316h139l-14 -316l299 107l41 -125l-304 -88v-4l193 -246l-107 -80l-176 260h-4z" />
    <glyph glyph-name="plus" unicode="+" horiz-adv-x="1409" 
d="M170 522v119h473v522h125v-522h471v-119h-471v-522h-125v522h-473z" />
    <glyph glyph-name="comma" unicode="," horiz-adv-x="499" 
d="M74 -199l116 367h154l-151 -367h-119z" />
    <glyph glyph-name="hyphen" unicode="-" horiz-adv-x="1007" 
d="M213 518v127h582v-127h-582z" />
    <glyph glyph-name="period" unicode="." horiz-adv-x="505" 
d="M172 0v164h162v-164h-162z" />
    <glyph glyph-name="slash" unicode="/" horiz-adv-x="802" 
d="M84 -86l520 1606h129l-518 -1606h-131z" />
    <glyph glyph-name="zero" unicode="0" horiz-adv-x="1280" 
d="M641 -25q-110 0 -195.5 38t-142 104t-93 161.5t-52 204t-15.5 238.5q0 129 15.5 237t52 203t93 161t142 104t195.5 38t195.5 -38t141.5 -104t92 -161t51.5 -203t15.5 -237q0 -130 -15.5 -238.5t-51.5 -204t-92 -161.5t-141.5 -104t-195.5 -38zM641 109q99 0 168.5 46
t108 132.5t55 191.5t16.5 242q0 136 -16.5 241t-55 191t-108 132t-168.5 46q-80 0 -141.5 -31t-100.5 -84.5t-63.5 -132.5t-34.5 -166.5t-10 -195.5t10 -196t34.5 -167.5t63.5 -133t100.5 -84.5t141.5 -31z" />
    <glyph glyph-name="one" unicode="1" horiz-adv-x="954" 
d="M115 0v127h323v1057l2 80h-4q-14 -31 -71 -86l-154 -154l-90 92l325 324h132v-1313h317v-127h-780z" />
    <glyph glyph-name="two" unicode="2" horiz-adv-x="1157" 
d="M131 0q-8 44 -8 92q0 81 25 153t68 128t98 106.5t116.5 94t122.5 85t116 85t98 89t68 102t25 118.5q0 120 -83 198t-216 78q-59 0 -114 -20t-91 -49t-63.5 -58t-40.5 -49l-12 -20l-107 71q5 11 16 28.5t50 62t85 79t123 62.5t162 28q200 0 319.5 -114.5t119.5 -288.5
q0 -98 -40 -183t-104.5 -147t-142 -119t-155 -109.5t-142 -106.5t-105 -123t-40.5 -146h751v-127h-899z" />
    <glyph glyph-name="three" unicode="3" horiz-adv-x="1150" 
d="M92 172l86 109q6 -7 17.5 -18.5t49 -40.5t77.5 -51.5t101.5 -41t123.5 -18.5q133 0 231.5 88.5t98.5 222.5q0 74 -30 133.5t-81 96.5t-115.5 57t-136.5 20h-98l-35 84l360 422q17 20 36 40t29 30l11 10v4q-41 -6 -117 -6h-540v127h841v-94l-430 -496q59 -3 117.5 -17.5
t120 -47t107.5 -78.5t76 -119t30 -162q0 -122 -61 -225t-170 -164.5t-242 -61.5q-79 0 -155.5 20.5t-128.5 49.5t-93 57.5t-60 49.5z" />
    <glyph glyph-name="four" unicode="4" horiz-adv-x="1222" 
d="M70 399v93l708 948h154v-916h205v-125h-205v-399h-141v399h-721zM242 524h549v602l6 136h-4q-33 -58 -72 -109l-479 -625v-4z" />
    <glyph glyph-name="five" unicode="5" horiz-adv-x="1142" 
d="M111 180l90 99q4 -7 12.5 -18t38.5 -40t65 -51.5t91.5 -40.5t117.5 -18q151 0 255 96t104 242t-105 241.5t-260 95.5q-68 0 -133.5 -19t-96.5 -39l-32 -19l-90 32l78 699h696v-127h-573l-41 -369l-15 -82h4q10 6 29 15.5t76.5 25t114.5 15.5q214 0 354.5 -136t140.5 -333
q0 -131 -66 -240t-181 -171.5t-253 -62.5q-80 0 -153 21t-120 51t-82 60.5t-51 51.5z" />
    <glyph glyph-name="six" unicode="6" horiz-adv-x="1218" 
d="M653 -25q-154 0 -273 87.5t-183 241.5t-64 347q0 111 22.5 222.5t73 219t122.5 189.5t179.5 132t235.5 50q71 0 137 -15t97 -29l30 -15l-53 -125q-10 6 -28.5 14.5t-73 22.5t-107.5 14q-87 0 -162.5 -33t-129.5 -89t-94 -130.5t-62.5 -156t-30.5 -168.5h4
q52 76 151.5 122t212.5 46q197 0 323 -130.5t126 -334.5q0 -219 -129.5 -350.5t-323.5 -131.5zM651 109q143 0 226.5 96.5t83.5 249.5q0 154 -89 247t-237 93q-140 0 -244 -77.5t-104 -168.5q0 -99 45 -199t131 -170.5t188 -70.5z" />
    <glyph glyph-name="seven" unicode="7" horiz-adv-x="1064" 
d="M199 0l581 1180q17 35 37 68t31 49l12 16v4q-36 -4 -108 -4h-674v127h936v-99l-668 -1341h-147z" />
    <glyph glyph-name="eight" unicode="8" horiz-adv-x="1232" 
d="M131 414q0 65 22 127.5t51 105t66 80t59 54t38 26.5q-179 119 -179 293q0 71 27.5 135.5t80 116t137.5 82t190 30.5q200 0 320 -102.5t120 -271.5q0 -71 -24 -143t-59.5 -125.5t-56.5 -80t-36 -41.5q99 -56 154 -130t55 -179q0 -172 -136 -294t-342 -122q-131 0 -241 52
t-178 153.5t-68 233.5zM950 393q0 45 -21 84t-51.5 66.5t-82.5 57.5t-94.5 48.5t-110 47.5t-107.5 48q-18 -11 -39 -26.5t-53 -46.5t-56 -65.5t-41.5 -84.5t-17.5 -102q0 -140 102.5 -227t239.5 -87q132 0 232 81.5t100 205.5zM332 1098q0 -34 11 -64.5t27.5 -54t46 -47
t56 -40t68.5 -36.5t72.5 -32.5t79 -33t77.5 -32.5q16 15 36 39t48.5 67t47 101t18.5 118q0 114 -82.5 182t-214.5 68q-134 0 -212.5 -67.5t-78.5 -167.5z" />
    <glyph glyph-name="nine" unicode="9" horiz-adv-x="1216" 
d="M451 -25q-70 0 -136.5 15t-97.5 30l-31 15l54 125q10 -6 28.5 -14.5t73 -22.5t107.5 -14q88 0 163.5 33t129.5 89t94 131t63 156t31 168h-4q-54 -76 -154 -122t-213 -46q-196 0 -321 130.5t-125 334.5q0 219 128 350t322 131q154 0 273 -87.5t183 -241.5t64 -347
q0 -92 -16 -185.5t-48 -185t-85 -171t-120.5 -140.5t-161 -96t-201.5 -35zM582 645q141 0 244.5 77.5t103.5 168.5q0 73 -27.5 150.5t-74 142t-116.5 106t-147 41.5q-143 0 -226 -96.5t-83 -249.5q0 -154 89 -247t237 -93z" />
    <glyph glyph-name="colon" unicode=":" horiz-adv-x="600" 
d="M219 866v164h162v-164h-162zM219 0v164h162v-164h-162z" />
    <glyph glyph-name="semicolon" unicode=";" horiz-adv-x="600" 
d="M127 -199l100 367h154l-135 -367h-119zM227 866v164h162v-164h-162z" />
    <glyph glyph-name="less" unicode="&#x3c;" horiz-adv-x="1161" 
d="M102 530v103l926 414v-138l-752 -325v-4l752 -326v-137z" />
    <glyph glyph-name="equal" unicode="=" horiz-adv-x="1400" 
d="M223 700v119h955v-119h-955zM223 344v119h955v-119h-955z" />
    <glyph glyph-name="greater" unicode="&#x3e;" horiz-adv-x="1161" 
d="M133 117v137l752 326v4l-752 325v138l926 -414v-103z" />
    <glyph glyph-name="question" unicode="?" horiz-adv-x="985" 
d="M315 377v92q0 66 20 123t51.5 98.5t69.5 79t76.5 73t70 72t51.5 83.5t20 100q0 100 -75.5 167.5t-192.5 67.5q-62 0 -124 -22t-93 -44l-31 -22l-76 105q5 5 15 12.5t42.5 27.5t68.5 35.5t91.5 28t112.5 12.5q176 0 292.5 -101.5t116.5 -260.5q0 -69 -20 -128t-52.5 -101
t-71.5 -80t-78 -73t-71.5 -71t-52.5 -83.5t-20 -102.5v-88h-140zM307 0v158h158v-158h-158z" />
    <glyph glyph-name="at" unicode="@" horiz-adv-x="1648" 
d="M133 496q0 154 58 293.5t156 239.5t232.5 159t282.5 59q134 0 234 -32t157 -87.5t84 -122.5t27 -145v-645h145v-115h-551q-174 0 -291.5 116t-117.5 278q0 161 117 277t292 116h267q-3 103 -92 171t-261 68q-165 0 -302.5 -85.5t-215.5 -230t-78 -314.5q0 -172 78 -315.5
t217.5 -227.5t311.5 -84v-123q-157 0 -296.5 59t-238.5 159.5t-157 239t-58 292.5zM692 496q0 -118 80.5 -199.5t198.5 -81.5h254v563h-250q-120 0 -201.5 -82.5t-81.5 -199.5z" />
    <glyph glyph-name="A" unicode="A" horiz-adv-x="1261" 
d="M1085 0l-165 459h-580l-164 -459h-149l528 1440h152l528 -1440h-150zM633 1290h-4q-31 -118 -56 -186l-192 -522h496l-189 522q-11 30 -25 76.5t-22 77.5z" />
    <glyph glyph-name="B" unicode="B" horiz-adv-x="1282" 
d="M209 0v1440h491q173 0 281.5 -98.5t108.5 -264.5q0 -110 -48.5 -190.5t-134.5 -122.5v-4q110 -31 176 -128.5t66 -228.5q0 -187 -122.5 -295t-309.5 -108h-508zM350 815h350q109 0 176.5 70t67.5 182t-66 179t-180 67h-348v-498zM350 127h369q130 0 206 76t76 205
q0 128 -78.5 206t-205.5 78h-367v-565z" />
    <glyph glyph-name="C" unicode="C" horiz-adv-x="1490" 
d="M113 729q0 154 55.5 290.5t151 234t230 154t286.5 56.5q96 0 185 -19t147 -46.5t102 -55t64 -46.5l20 -19l-76 -104q-7 6 -20 17t-56.5 38.5t-91 48.5t-121 38t-149.5 17q-166 0 -299 -79.5t-207 -217t-74 -305.5q0 -171 74 -313.5t208.5 -227t301.5 -84.5q81 0 159.5 20
t131.5 48t94.5 56.5t61.5 48.5l20 20l82 -100q-8 -9 -23.5 -24t-68.5 -54t-112 -68.5t-153.5 -53.5t-193.5 -24q-209 0 -376.5 100.5t-260 273t-92.5 380.5z" />
    <glyph glyph-name="D" unicode="D" horiz-adv-x="1515" 
d="M209 0v1440h465q216 0 378.5 -84t253.5 -247.5t91 -387.5q0 -339 -197 -530t-526 -191h-465zM350 127h309q271 0 430.5 155t159.5 439q0 282 -160.5 437t-429.5 155h-309v-1186z" />
    <glyph glyph-name="E" unicode="E" horiz-adv-x="1169" 
d="M209 0v1440h811v-127h-670v-525h547v-126h-547v-535h707v-127h-848z" />
    <glyph glyph-name="F" unicode="F" horiz-adv-x="1052" 
d="M209 0v1440h758v-127h-617v-541h529v-127h-529v-645h-141z" />
    <glyph glyph-name="G" unicode="G" horiz-adv-x="1552" 
d="M113 721q0 154 55.5 291.5t151.5 236.5t230.5 157t287.5 58q94 0 181 -17.5t144.5 -42t101.5 -49t65 -41.5l20 -18l-76 -106q-7 6 -20 15.5t-56 34t-89.5 43.5t-119 34.5t-145.5 15.5q-170 0 -304.5 -81t-207 -220t-72.5 -309q0 -175 74 -316t204.5 -221t292.5 -80
q79 0 154.5 21.5t127 52.5t92 62.5t59.5 53.5l20 21v244h-246v127h381v-688h-131v109l2 61h-4q-7 -8 -20 -21t-58 -46.5t-95 -59.5t-130.5 -47t-165.5 -21q-194 0 -355.5 96.5t-255 268t-93.5 381.5z" />
    <glyph glyph-name="H" unicode="H" horiz-adv-x="1536" 
d="M209 0v1440h141v-656h836v656h141v-1440h-141v657h-836v-657h-141z" />
    <glyph glyph-name="I" unicode="I" horiz-adv-x="559" 
d="M209 0v1440h141v-1440h-141z" />
    <glyph glyph-name="J" unicode="J" horiz-adv-x="1073" 
d="M72 403v58h141v-53q0 -80 22.5 -140t61 -94.5t84 -51t96.5 -16.5q40 0 76.5 9t70.5 31.5t59.5 55.5t40.5 84.5t15 116.5v910h-352v127h494v-1037q0 -112 -35 -197.5t-94 -134t-129 -72.5t-148 -24q-61 0 -117.5 14.5t-109 47.5t-91.5 81.5t-62 121.5t-23 163z" />
    <glyph glyph-name="K" unicode="K" horiz-adv-x="1230" 
d="M209 0v1440h141v-625h244l387 625h162l-430 -680v-4l458 -756h-165l-412 688h-244v-688h-141z" />
    <glyph glyph-name="L" unicode="L" horiz-adv-x="1060" 
d="M209 0v1440h141v-1313h668v-127h-809z" />
    <glyph glyph-name="M" unicode="M" horiz-adv-x="1748" 
d="M164 0l115 1440h147l377 -846q15 -33 32 -77t27 -71l10 -28h5q38 102 71 176l377 846h145l115 -1440h-141l-80 1008q-3 35 -4 85t0 83v32h-4q-43 -126 -76 -200l-338 -740h-133l-338 740q-15 32 -34.5 83t-31.5 86l-12 35h-4q2 -126 -4 -204l-80 -1008h-141z" />
    <glyph glyph-name="N" unicode="N" horiz-adv-x="1542" 
d="M209 0v1440h137l735 -1037q22 -32 51.5 -80.5t48.5 -80.5l19 -33h4q-12 118 -12 194v1037h141v-1440h-137l-735 1036q-22 32 -51.5 81t-48.5 81l-19 33h-4q12 -119 12 -195v-1036h-141z" />
    <glyph glyph-name="O" unicode="O" horiz-adv-x="1687" 
d="M111 729q0 152 57.5 289t155.5 234.5t233.5 154.5t286.5 57t286.5 -57t233.5 -154.5t155.5 -234.5t57.5 -289q0 -155 -57.5 -295t-155.5 -240.5t-234 -159.5t-286 -59t-286 59t-234 159.5t-155.5 240.5t-57.5 295zM258 729q0 -130 46 -245.5t124.5 -198.5t187 -131
t228.5 -48t228 48.5t186.5 131t125 198t46.5 245.5q0 169 -78.5 308t-213 217.5t-294.5 78.5q-121 0 -229 -46.5t-186.5 -126t-124.5 -192t-46 -239.5z" />
    <glyph glyph-name="P" unicode="P" horiz-adv-x="1224" 
d="M209 0v1440h498q196 0 320 -118.5t124 -315.5q0 -199 -124 -320t-320 -121h-357v-565h-141zM350 692h338q146 0 232 83.5t86 230.5q0 144 -86 225.5t-230 81.5h-340v-621z" />
    <glyph glyph-name="Q" unicode="Q" horiz-adv-x="1710" 
d="M111 729q0 153 57 289.5t154 234t232 154.5t286 57q153 0 289.5 -57t234.5 -155t155.5 -234t57.5 -289q0 -140 -47.5 -268.5t-132.5 -227.5l178 -178l-86 -88l-176 178q-198 -170 -473 -170q-150 0 -285.5 59t-232.5 160t-154 240.5t-57 294.5zM258 729
q0 -172 76.5 -315.5t210.5 -225.5t295 -82q98 0 198.5 36.5t173.5 99.5l-176 180l86 88l174 -178q63 80 98.5 183t35.5 214q0 169 -78 308t-213 217.5t-299 78.5q-121 0 -229 -46.5t-185.5 -126.5t-122.5 -192t-45 -239z" />
    <glyph glyph-name="R" unicode="R" horiz-adv-x="1286" 
d="M209 0v1440h426q181 0 270 -39q102 -44 159.5 -142.5t57.5 -228.5q0 -145 -74.5 -250t-197.5 -139v-4q14 -18 37 -57l313 -580h-162l-325 606h-363v-606h-141zM350 733h342q131 0 208 79t77 214q0 182 -131 252q-65 35 -205 35h-291v-580z" />
    <glyph glyph-name="S" unicode="S" horiz-adv-x="1101" 
d="M102 160l84 108q6 -6 17.5 -17t49.5 -38t79 -47.5t104 -37.5t127 -17q122 0 204.5 67.5t82.5 181.5q0 58 -24.5 105t-66 80.5t-95.5 62t-114 54t-119.5 52t-113.5 60t-95.5 74.5t-66 99.5t-24.5 129.5q0 159 127 273t322 114q70 0 135.5 -14.5t109 -35t76.5 -40.5t49 -34
l15 -15l-70 -119q-5 5 -15 13.5t-42 29.5t-66 37t-86.5 29.5t-105.5 13.5q-133 0 -218.5 -74.5t-85.5 -173.5q0 -55 24.5 -99t66 -75t95.5 -58t114 -52t119.5 -51t113.5 -61t95.5 -78t66 -104.5t24.5 -137.5q0 -166 -119.5 -278t-316.5 -112q-83 0 -160.5 19t-129 46
t-91 54.5t-58.5 46.5z" />
    <glyph glyph-name="T" unicode="T" horiz-adv-x="1204" 
d="M532 0v1313h-518v127h1176v-127h-516v-1313h-142z" />
    <glyph glyph-name="U" unicode="U" horiz-adv-x="1482" 
d="M190 502v938h144v-936q0 -185 110 -291.5t297 -106.5q188 0 299 107.5t111 294.5v932h141v-938q0 -238 -151.5 -382.5t-397.5 -144.5q-247 0 -400 144.5t-153 382.5z" />
    <glyph glyph-name="V" unicode="V" horiz-adv-x="1265" 
d="M559 0l-534 1440h151l399 -1094q12 -33 26 -79.5t22 -76.5l8 -30h4q28 112 55 186l400 1094h151l-534 -1440h-148z" />
    <glyph glyph-name="W" unicode="W" horiz-adv-x="1898" 
d="M948 1229h-4q-22 -123 -47 -215l-274 -1014h-170l-373 1440h147l279 -1118l33 -154h4q1 0 4.5 22t11 61t16.5 71l304 1118h135l303 -1118q9 -32 17 -71t11.5 -61t4.5 -22h4q14 80 32 154l289 1118h148l-383 -1440h-170l-275 1014q-11 41 -23 94.5t-18 87.5z" />
    <glyph glyph-name="X" unicode="X" horiz-adv-x="1212" 
d="M53 0l459 752l-418 688h166l252 -426l94 -166h4q41 92 86 166l254 426h168l-422 -688l461 -752h-164l-299 498l-90 159h-4q-43 -85 -88 -161l-295 -496h-164z" />
    <glyph glyph-name="Y" unicode="Y" horiz-adv-x="1175" 
d="M516 0v618l-485 822h162l305 -522q19 -33 41 -76t35 -70l12 -27h4q43 97 88 173l305 522h160l-484 -822v-618h-143z" />
    <glyph glyph-name="Z" unicode="Z" horiz-adv-x="1218" 
d="M88 0v100l743 1082q24 34 49 66.5t38 48.5l14 16v4q-35 -4 -105 -4h-700v127h981v-101l-743 -1081q-24 -35 -49.5 -67.5t-39.5 -48.5l-14 -15v-4q37 4 107 4h745v-127h-1026z" />
    <glyph glyph-name="bracketleft" unicode="[" horiz-adv-x="577" 
d="M219 -195v1690h277v-115h-148v-1460h148v-115h-277z" />
    <glyph glyph-name="backslash" unicode="\" horiz-adv-x="804" 
d="M590 -86l-520 1606h131l518 -1606h-129z" />
    <glyph glyph-name="bracketright" unicode="]" horiz-adv-x="577" 
d="M82 -80h147v1460h-147v115h276v-1690h-276v115z" />
    <glyph glyph-name="asciicircum" unicode="^" horiz-adv-x="1241" 
d="M150 512l405 928h96l406 -928h-133l-320 758l-319 -758h-135z" />
    <glyph glyph-name="underscore" unicode="_" horiz-adv-x="1196" 
d="M70 0h1056v-119h-1056v119z" />
    <glyph glyph-name="grave" unicode="`" horiz-adv-x="1032" 
d="M541 1540l-176 244h161l142 -244h-127z" />
    <glyph glyph-name="a" unicode="a" horiz-adv-x="1064" 
d="M84 281q0 72 26.5 129t66 93.5t100.5 63.5t113.5 40t122.5 20t110 8.5t92 1.5h57v27q0 266 -256 266q-76 0 -148.5 -25t-107.5 -49l-35 -25l-65 107q6 5 16 13t46 28t75.5 35.5t101.5 28t127 12.5q187 0 286 -101.5t99 -294.5v-659h-133v113l4 86h-4q-2 -5 -5.5 -13
t-17.5 -31t-31 -44.5t-46.5 -47t-62.5 -44.5t-80.5 -31.5t-100.5 -12.5q-52 0 -102.5 12t-95 37t-78.5 60.5t-54 86t-20 110.5zM227 289q0 -78 60.5 -136.5t169.5 -58.5q94 0 168 59.5t110.5 145.5t36.5 178v45h-59q-46 0 -79 -1t-87.5 -5.5t-94 -13.5t-84.5 -26t-73.5 -41
t-48 -61.5t-19.5 -84.5z" />
    <glyph glyph-name="b" unicode="b" horiz-adv-x="1206" 
d="M168 0v1440h139v-500l-4 -84h4q4 8 11 21.5t36 48t65.5 60.5t100 47.5t137.5 21.5q205 0 327 -149.5t122 -391.5t-130 -390.5t-335 -148.5q-69 0 -129 20.5t-96.5 50t-63.5 59.5t-38 51l-11 20h-4q4 -35 4 -84v-92h-135zM303 512q0 -79 20.5 -152t60 -132t103.5 -94.5
t144 -35.5q141 0 236.5 112.5t95.5 303.5q0 188 -90 301t-236 113q-67 0 -125.5 -24.5t-106 -73t-75 -130.5t-27.5 -188z" />
    <glyph glyph-name="c" unicode="c" horiz-adv-x="1124" 
d="M96 514q0 155 72 279.5t195.5 193t273.5 68.5q71 0 135.5 -15t106.5 -37t74 -44t47 -37l14 -15l-72 -104l-13.5 13.5t-38.5 30t-62.5 38t-83.5 30t-103 13.5q-171 0 -286 -116t-115 -298q0 -180 116.5 -297t288.5 -117q59 0 114.5 15t92.5 36.5t66.5 43t43.5 36.5l13 15
l63 -109q-6 -7 -17 -17.5t-49 -38.5t-81 -49.5t-112 -39t-142 -17.5q-152 0 -275 67.5t-194.5 191.5t-71.5 280z" />
    <glyph glyph-name="d" unicode="d" horiz-adv-x="1206" 
d="M100 516q0 242 129.5 390.5t333.5 148.5q70 0 130.5 -20t96.5 -48.5t62 -57.5t36 -49l11 -20h4q-4 35 -4 78v502h139v-1440h-135v109l4 73h-4q-3 -8 -10.5 -22t-36.5 -50t-65.5 -63t-101 -49.5t-140.5 -22.5q-205 0 -327 149.5t-122 391.5zM244 516q0 -189 89.5 -302.5
t235.5 -113.5q67 0 125.5 24.5t106 73t75 130.5t27.5 188q0 80 -20.5 153t-60 132t-103.5 94t-144 35q-141 0 -236 -112.5t-95 -301.5z" />
    <glyph glyph-name="e" unicode="e" horiz-adv-x="1132" 
d="M96 514q0 124 40 227t109.5 171t161.5 105.5t197 37.5q137 0 236.5 -66t146.5 -172t47 -237l-4 -72h-790q3 -128 58.5 -222t144 -140t196.5 -46q53 0 104.5 13t87.5 31t64.5 36.5t42.5 31.5l14 13l64 -106q-6 -6 -17.5 -15.5t-50 -34.5t-80 -44t-105 -34.5t-128.5 -15.5
q-232 0 -385.5 151.5t-153.5 387.5zM246 623h647q-6 154 -88 234.5t-205 80.5q-134 0 -232 -82.5t-122 -232.5z" />
    <glyph glyph-name="f" unicode="f" horiz-adv-x="655" 
d="M215 0v901h-129v117h129v49q0 97 26.5 170t64.5 112.5t90 63.5t92.5 30.5t82.5 6.5l64 -4v-125q-20 4 -49 4t-55.5 -4.5t-60 -20.5t-58 -42.5t-41.5 -76t-17 -114.5v-49h264v-117h-264v-901h-139z" />
    <glyph glyph-name="g" unicode="g" horiz-adv-x="1191" 
d="M246 -233q14 -8 39 -20t98 -32t141 -20q161 0 261 80t100 243v95l4 73h-4q-95 -180 -326 -180q-206 0 -332.5 148t-126.5 381q0 234 121 377t326 143q76 0 139 -17.5t98.5 -43t60.5 -51t33 -43.5l9 -17h4q-2 12 -2 35v112h135v-1005q0 -95 -27.5 -172.5t-74 -129.5
t-110 -87t-134 -50.5t-148.5 -15.5q-176 0 -337 82zM582 131q64 0 116.5 21t96 66.5t68 126t24.5 190.5q0 393 -326 393q-150 0 -233.5 -103t-83.5 -288t92 -295.5t246 -110.5z" />
    <glyph glyph-name="h" unicode="h" horiz-adv-x="1214" 
d="M168 0v1440h139v-557l-4 -84h4q16 40 49 82t82.5 82.5t122.5 66t156 25.5q184 0 264 -100.5t80 -299.5v-655h-139v618q0 55 -4 95t-17.5 82t-37.5 68.5t-65.5 43.5t-99.5 17q-131 0 -235 -81.5t-139 -211.5q-17 -58 -17 -137v-494h-139z" />
    <glyph glyph-name="i" unicode="i" horiz-adv-x="475" 
d="M164 1266v174h145v-174h-145zM168 0v1030h139v-1030h-139z" />
    <glyph glyph-name="j" unicode="j" horiz-adv-x="475" 
d="M166 1266v174h143v-174h-143zM168 1030h139v-1069q0 -97 -27 -170.5t-65 -112.5t-91 -63t-93 -30.5t-82 -6.5q-16 0 -31.5 1.5t-23.5 2.5l-7 2v121q18 -2 45 -2q29 0 56 4.5t61.5 21t59 43.5t42 77.5t17.5 117.5v1063z" />
    <glyph glyph-name="k" unicode="k" horiz-adv-x="1028" 
d="M168 0v1440h139v-803h164l309 393h168l-358 -448v-4l393 -578h-166l-344 516h-166v-516h-139z" />
    <glyph glyph-name="l" unicode="l" horiz-adv-x="505" 
d="M158 244v1196h139v-1166q0 -91 32.5 -123t82.5 -32l34 2v-125q-24 -4 -51 -4q-31 0 -58.5 4.5t-61.5 20t-58.5 41.5t-41.5 74t-17 112z" />
    <glyph glyph-name="m" unicode="m" horiz-adv-x="1875" 
d="M168 0v1030h137v-153l-4 -82h4q37 106 146 183t227 77q140 0 217.5 -64.5t101.5 -193.5h4q43 108 148 183t231 75q181 0 261.5 -101t80.5 -299v-655h-139v621q0 69 -9 119.5t-31.5 95.5t-68.5 68.5t-114 23.5q-114 0 -204.5 -85.5t-121.5 -205.5q-18 -58 -18 -150v-487
h-139v621q0 53 -4 92.5t-17 82.5t-36 70t-64 44.5t-97 17.5q-120 0 -211.5 -88.5t-125.5 -214.5q-15 -65 -15 -138v-487h-139z" />
    <glyph glyph-name="n" unicode="n" horiz-adv-x="1214" 
d="M168 0v1030h137v-153l-4 -82h4q12 31 33.5 63.5t57.5 68.5t80.5 64t107.5 46t133 18q184 0 264 -100.5t80 -299.5v-655h-139v618q0 55 -4 95t-17.5 82t-37.5 68.5t-65.5 43.5t-99.5 17q-131 0 -235 -81.5t-139 -209.5q-17 -61 -17 -139v-494h-139z" />
    <glyph glyph-name="o" unicode="o" horiz-adv-x="1273" 
d="M92 520q0 150 73 273t198 192.5t274 69.5t274 -69.5t198 -192.5t73 -273q0 -114 -43 -216t-116.5 -173.5t-174 -113.5t-211.5 -42t-211.5 42t-174 113.5t-116.5 173.5t-43 216zM236 520q0 -179 117 -299.5t284 -120.5t284 120.5t117 299.5q0 173 -117 290.5t-284 117.5
t-284 -117.5t-117 -290.5z" />
    <glyph glyph-name="p" unicode="p" horiz-adv-x="1206" 
d="M168 -410v1440h133v-100l-4 -80h4q3 8 10.5 22t36.5 49.5t66 62.5t102 49t141 22q205 0 327 -149.5t122 -391.5t-129.5 -390.5t-331.5 -148.5q-51 0 -97 11t-79 28t-61 38t-46 42.5t-31 38.5t-19 28l-5 11h-4q4 -37 4 -90v-492h-139zM303 512q0 -107 36.5 -199.5
t113 -153.5t178.5 -61q141 0 236.5 112.5t95.5 303.5q0 188 -90 301t-236 113q-67 0 -125.5 -24.5t-106 -73t-75 -130.5t-27.5 -188z" />
    <glyph glyph-name="q" unicode="q" horiz-adv-x="1206" 
d="M100 516q0 242 129.5 390.5t333.5 148.5q51 0 97 -11t79.5 -28.5t61.5 -38.5t46 -42.5t30.5 -39t18.5 -28.5l5 -11h4q-2 33 -2 78v96h135v-1440h-139v496l4 90h-4q-4 -8 -11 -21.5t-36 -48.5t-65.5 -61.5t-100 -48t-137.5 -21.5q-205 0 -327 149.5t-122 391.5zM244 516
q0 -189 89.5 -302.5t235.5 -113.5q67 0 125.5 24.5t106 73t75 130.5t27.5 188q0 80 -20.5 153t-60 132t-103.5 94t-144 35q-141 0 -236 -112.5t-95 -301.5z" />
    <glyph glyph-name="r" unicode="r" horiz-adv-x="729" 
d="M168 0v1030h137v-182l-4 -82h4q38 122 123.5 198t202.5 76l55 -6v-137q-24 4 -51 4q-105 0 -184.5 -74t-114.5 -192q-29 -96 -29 -201v-434h-139z" />
    <glyph glyph-name="s" unicode="s" horiz-adv-x="907" 
d="M84 125l76 100l13.5 -13.5t38.5 -30t63.5 -38t85.5 -30t106 -13.5q88 0 147.5 43t59.5 121q0 40 -24 72.5t-63 54t-88.5 44t-102 41t-102 46t-88.5 59t-63 80.5t-24 109q0 132 102.5 208.5t249.5 76.5q61 0 116 -11.5t90 -28t61.5 -33.5t37.5 -28l12 -12l-63 -106
q-4 4 -10.5 10t-31 22.5t-52 29t-72 22.5t-92.5 10q-86 0 -145.5 -39.5t-59.5 -120.5q0 -46 30.5 -81.5t79.5 -59.5t108.5 -46t118.5 -49t108 -60.5t79.5 -87t30.5 -122.5q0 -126 -98.5 -207.5t-253.5 -81.5q-70 0 -135 15.5t-107.5 37.5t-75.5 44t-48 38z" />
    <glyph glyph-name="t" unicode="t" horiz-adv-x="686" 
d="M207 375v526h-135v117h137v297h137v-297h258v-117h-258v-512q0 -58 11.5 -104t31.5 -74.5t43 -48t51.5 -29t50 -13t44.5 -3.5l47 4v-125q-23 -4 -60 -4q-43 0 -83.5 6.5t-93 30t-90.5 62.5t-64.5 112.5t-26.5 171.5z" />
    <glyph glyph-name="u" unicode="u" horiz-adv-x="1204" 
d="M154 375v655h139v-618q0 -55 4 -95t17.5 -82t37 -68.5t65 -43.5t99.5 -17q114 0 202.5 61.5t133.5 159t45 210.5v493h139v-1030h-135v154l4 82h-4q-17 -41 -49.5 -83.5t-81.5 -84t-120.5 -67.5t-151.5 -26q-179 0 -261.5 98t-82.5 302z" />
    <glyph glyph-name="v" unicode="v" horiz-adv-x="993" 
d="M422 0l-395 1030h147l287 -756l35 -122h4q17 69 37 122l284 756h146l-394 -1030h-151z" />
    <glyph glyph-name="w" unicode="w" horiz-adv-x="1640" 
d="M383 0l-348 1030h147l250 -768l31 -110h4q15 61 31 110l254 764h137l254 -764l31 -110h4q14 59 30 110l250 768h148l-349 -1030h-151l-252 733l-33 111h-4q-15 -60 -31 -111l-251 -733h-152z" />
    <glyph glyph-name="x" unicode="x" horiz-adv-x="1005" 
d="M502 444h-2q-17 -30 -35 -57l-250 -387h-164l363 537l-332 493h164l221 -346l35 -59h2q19 32 35 59l221 346h164l-332 -493l362 -537h-163l-250 387l-35 57h-4z" />
    <glyph glyph-name="y" unicode="y" horiz-adv-x="1021" 
d="M14 -369l54 111q6 -5 17.5 -13t43.5 -21t61 -13q122 0 195 168l64 145l-431 1022h154l303 -751l37 -109h4q15 58 35 109l297 751h151l-507 -1245q-40 -100 -118 -157.5t-179 -57.5q-47 0 -92.5 15t-66.5 31z" />
    <glyph glyph-name="z" unicode="z" horiz-adv-x="1042" 
d="M86 0v90l576 723l81 94v4q-34 -4 -102 -4h-530v123h821v-92l-576 -721q-17 -22 -38 -45.5t-34 -35.5l-12 -13v-4q37 4 105 4h575v-123h-866z" />
    <glyph glyph-name="braceleft" unicode="{" horiz-adv-x="688" 
d="M283 170v195q0 60 -18 106t-43.5 68.5t-51 37t-43.5 17.5l-18 4v127q7 1 19 3.5t42 18t52.5 38.5t41.5 69.5t19 106.5v167q0 70 13 126.5t33 94t48.5 65.5t55.5 43t58.5 24t53.5 11.5t43 2.5h30v-115h-18q-20 0 -39.5 -3.5t-48 -18.5t-49.5 -40.5t-36 -75.5t-15 -118
v-200q0 -56 -17 -103.5t-41 -75t-48 -47t-41 -26.5l-17 -8v-5q7 -2 18 -6.5t39 -25t50 -46.5t39.5 -74.5t17.5 -107.5v-225q0 -67 15 -117t36 -75.5t49.5 -41t48 -19t39.5 -3.5h18v-115q-12 -2 -30 -2q-32 0 -64 5t-78 27.5t-80 59.5t-58.5 109t-24.5 168z" />
    <glyph glyph-name="bar" unicode="|" horiz-adv-x="563" 
d="M217 -322v1936h129v-1936h-129z" />
    <glyph glyph-name="braceright" unicode="}" horiz-adv-x="688" 
d="M70 -82h20q19 0 38.5 3.5t47.5 19t49 41t36 75.5t15 117v225q0 59 17 107t41 75t48 46t41 25l17 7v5q-7 2 -18 7.5t-39 26.5t-50 47.5t-39.5 74.5t-17.5 104v200q0 57 -10 101.5t-27.5 71t-36.5 44.5t-42 26t-38.5 10.5t-31.5 2.5h-20v115h32q25 0 50.5 -4t63 -15.5
t69 -37.5t60 -64t45 -101.5t16.5 -144.5v-167q0 -60 18 -106.5t43.5 -70t51 -38t43.5 -18.5l18 -3v-127q-7 -1 -19 -3.5t-42 -17.5t-52.5 -37.5t-41.5 -68.5t-19 -106v-195q0 -96 -24.5 -168t-58.5 -109t-80 -59.5t-77.5 -27.5t-63.5 -5l-32 2v115z" />
    <glyph glyph-name="asciitilde" unicode="~" horiz-adv-x="1232" 
d="M152 428q0 162 69.5 239.5t190.5 77.5q62 0 111 -22t80.5 -53.5t61 -62.5t68 -53t86.5 -22q43 0 74 20.5t45.5 54.5t20.5 65.5t6 64.5h120q0 -162 -69.5 -239.5t-190.5 -77.5q-62 0 -111 22t-80.5 53t-61 62.5t-68 53.5t-86.5 22q-43 0 -74 -20.5t-45.5 -54.5
t-20.5 -65.5t-6 -64.5h-120z" />
    <glyph glyph-name="uni00A0" unicode="&#xa0;" horiz-adv-x="550" 
 />
    <glyph glyph-name="exclamdown" unicode="&#xa1;" horiz-adv-x="561" 
d="M201 872v158h157v-158h-157zM209 -410l6 1063h131l6 -1063h-143z" />
    <glyph glyph-name="cent" unicode="&#xa2;" horiz-adv-x="1171" 
d="M553 -27v174q-203 23 -316.5 182.5t-113.5 391.5q0 231 113.5 389.5t316.5 181.5v172h115v-172q131 -15 228.5 -94.5t154.5 -208.5l-131 -49q-101 221 -304 221q-115 0 -195 -59.5t-116.5 -157t-36.5 -223.5q0 -95 21 -174.5t62.5 -139t109 -93t155.5 -33.5
q204 0 304 221l131 -51q-58 -127 -155 -210t-228 -94v-174h-115z" />
    <glyph glyph-name="sterling" unicode="&#xa3;" horiz-adv-x="1206" 
d="M160 668v112h90v305q0 162 119.5 270.5t304.5 108.5q54 0 107 -12t89.5 -29t65.5 -34t43 -29l14 -12l-86 -103q-4 3 -11.5 9t-32 21t-50 26t-64 20.5t-75.5 9.5q-130 0 -205.5 -73.5t-75.5 -180.5v-297h393v-112h-393v-541h694v-127h-966v127h129v541h-90z" />
    <glyph glyph-name="yen" unicode="&#xa5;" horiz-adv-x="1230" 
d="M211 717v104h217l-358 619h161l293 -510q21 -36 43 -82.5t33 -74.5l12 -28h4q42 103 89 185l294 510h162l-360 -619h215v-104h-273l-55 -99v-79h328v-107h-328v-432h-143v432h-334v107h334v79l-58 99h-276z" />
    <glyph glyph-name="section" unicode="&#xa7;" horiz-adv-x="843" 
d="M287 174l-140 889q-8 33 -8 72q0 143 97.5 236t255.5 93q63 0 122 -21.5t87 -42.5l28 -22l-72 -96q-8 7 -22 16.5t-57 26t-86 16.5q-97 0 -161.5 -59t-64.5 -160q0 -32 8 -63l136 -885h-123zM113 -41l71 98q8 -7 22.5 -17t58.5 -27t87 -17q97 0 160 60t63 163q0 35 -8 66
l-133 878h123l139 -889q9 -61 9 -71q0 -144 -98.5 -237t-256.5 -93q-63 0 -122 21.5t-87 43.5z" />
    <glyph glyph-name="dieresis" unicode="&#xa8;" horiz-adv-x="1032" 
d="M608 1608v176h127v-176h-127zM299 1608v176h125v-176h-125z" />
    <glyph glyph-name="copyright" unicode="&#xa9;" horiz-adv-x="1701" 
d="M123 721q0 152 57.5 290t154 237t230.5 157.5t281 58.5q150 0 286 -58.5t234 -157.5t155.5 -236.5t57.5 -290.5q0 -154 -57.5 -292.5t-155.5 -238t-233.5 -157.5t-286.5 -58q-147 0 -281 58.5t-230.5 157.5t-154 237.5t-57.5 292.5zM244 721q0 -176 79 -322t217.5 -229.5
t305.5 -83.5q171 0 312 83.5t221.5 229t80.5 322.5q0 175 -80.5 320t-221.5 229t-312 84q-167 0 -305.5 -84t-217.5 -229t-79 -320zM444 717q0 110 48 204.5t146 156t228 61.5q63 0 120.5 -19.5t94.5 -47.5t65.5 -56.5t41.5 -47.5l12 -20l-94 -63q-3 6 -10 15.5t-29.5 33.5
t-48 43t-65.5 34t-83 15q-142 0 -223.5 -90.5t-81.5 -216.5q0 -127 81 -217t224 -90q43 0 83 14.5t67 35t47 41.5t29 35l10 15l94 -64q-5 -8 -13.5 -20.5t-40 -45.5t-67 -58t-93.5 -45.5t-120 -20.5q-130 0 -228 60.5t-146 154t-48 203.5z" />
    <glyph glyph-name="ordfeminine" unicode="&#xaa;" horiz-adv-x="874" 
d="M395 782q-91 0 -158 51.5t-67 143.5q0 227 391 227h27v8q0 152 -146 152q-42 0 -85 -15t-65 -29l-22 -15l-53 79q4 3 11 8t30.5 18.5t49 23.5t65 18t80.5 8q120 0 182.5 -64.5t62.5 -187.5v-413h-106v100h-4q-2 -5 -7 -12.5t-22.5 -27t-38 -34.5t-54.5 -27t-71 -12z
M412 881q77 0 125.5 67t48.5 148v18h-25q-276 0 -276 -127q0 -45 33.5 -75.5t93.5 -30.5zM166 541v96h541v-96h-541z" />
    <glyph glyph-name="guillemotleft" unicode="&#xab;" horiz-adv-x="1071" 
d="M469 578l336 421h151l-335 -421l335 -420h-151zM438 158l-336 420l336 421h150l-336 -421l336 -420h-150z" />
    <glyph glyph-name="logicalnot" unicode="&#xac;" horiz-adv-x="1275" 
d="M150 700v119h954v-495h-125v376h-829z" />
    <glyph glyph-name="uni00AD" unicode="&#xad;" horiz-adv-x="884" 
d="M152 518v127h581v-127h-581z" />
    <glyph glyph-name="registered" unicode="&#xae;" horiz-adv-x="1701" 
d="M123 721q0 152 57.5 290t154 237t230.5 157.5t281 58.5q150 0 286 -58.5t234 -157.5t155.5 -236.5t57.5 -290.5q0 -154 -57.5 -292.5t-155.5 -238t-233.5 -157.5t-286.5 -58q-147 0 -281 58.5t-230.5 157.5t-154 237.5t-57.5 292.5zM244 721q0 -176 79 -322t217.5 -229.5
t305.5 -83.5q171 0 312 83.5t221.5 229t80.5 322.5q0 175 -80.5 320t-221.5 229t-312 84q-167 0 -305.5 -84t-217.5 -229t-79 -320zM604 322v798h285q106 0 172.5 -65t66.5 -172q0 -84 -44 -140t-105 -71v-4q9 -10 27 -45l153 -301h-127l-160 323h-153v-323h-115zM719 735
h149q65 0 103.5 39.5t38.5 108.5q0 67 -38.5 104t-103.5 37h-149v-289z" />
    <glyph glyph-name="macron" unicode="&#xaf;" horiz-adv-x="1032" 
d="M264 1608v112h504v-112h-504z" />
    <glyph glyph-name="degree" unicode="&#xb0;" horiz-adv-x="780" 
d="M389 893q-120 0 -203.5 83t-83.5 202q0 117 83.5 200.5t203.5 83.5t204.5 -83.5t84.5 -200.5q0 -118 -84.5 -201.5t-204.5 -83.5zM389 1008q70 0 119 49.5t49 120.5q0 70 -49 120t-119 50t-117 -50t-47 -120q0 -71 47 -120.5t117 -49.5z" />
    <glyph glyph-name="plusminus" unicode="&#xb1;" horiz-adv-x="1409" 
d="M170 522v119h473v522h125v-522h471v-119h-471v-522h-125v522h-473zM207 -213h995v-119h-995v119z" />
    <glyph glyph-name="twosuperior" unicode="&#xb2;" 
d="M109 866q-7 40 -7 64q0 69 24.5 127t64 98.5t86.5 75.5t94.5 66t87 62t64 71t24.5 86q0 66 -47 111.5t-121 45.5q-48 0 -93.5 -25t-67.5 -50l-21 -25l-74 72q4 5 10.5 14t31 32t52.5 40.5t73 32t93 14.5q127 0 203 -73.5t76 -186.5q0 -61 -23.5 -112.5t-61.5 -87.5
t-84 -68.5t-92.5 -62t-85 -60t-64.5 -71t-28 -87.5h455v-103h-569z" />
    <glyph glyph-name="threesuperior" unicode="&#xb3;" 
d="M379 846q-55 0 -105.5 14t-82.5 34t-56.5 39.5t-35.5 33.5l-11 14l72 78q3 -4 9 -11.5t27 -26t44.5 -32.5t60.5 -25.5t76 -11.5q74 0 133 53t59 130q0 79 -60.5 125.5t-139.5 46.5h-68l-29 63l203 236q9 11 21.5 24t21.5 20l8 7v4q-38 -6 -75 -6h-316v102h539v-74
l-244 -282q47 -6 89.5 -23t81 -47.5t61 -81t22.5 -114.5q0 -120 -88 -204.5t-217 -84.5z" />
    <glyph glyph-name="acute" unicode="&#xb4;" horiz-adv-x="1032" 
d="M365 1540l141 244h162l-176 -244h-127z" />
    <glyph glyph-name="mu" unicode="&#xb5;" horiz-adv-x="1247" 
d="M182 -410v1440h140v-618q0 -55 4 -95t18 -82t38 -68.5t65.5 -43.5t99.5 -17q85 0 157 36t120 96t75 137.5t27 161.5v493h139v-1030h-135v156l4 80h-4q-2 -5 -6.5 -14.5t-21 -36.5t-36.5 -52t-54.5 -55t-73 -51.5t-94 -36.5t-116.5 -15q-48 0 -89 9t-65.5 21.5t-42 25
t-23.5 21.5l-7 9h-4q14 -104 14 -155v-316h-129z" />
    <glyph glyph-name="mu" unicode="&#x3bc;" horiz-adv-x="1247" 
d="M182 -410v1440h140v-618q0 -55 4 -95t18 -82t38 -68.5t65.5 -43.5t99.5 -17q85 0 157 36t120 96t75 137.5t27 161.5v493h139v-1030h-135v156l4 80h-4q-2 -5 -6.5 -14.5t-21 -36.5t-36.5 -52t-54.5 -55t-73 -51.5t-94 -36.5t-116.5 -15q-48 0 -89 9t-65.5 21.5t-42 25
t-23.5 21.5l-7 9h-4q14 -104 14 -155v-316h-129z" />
    <glyph glyph-name="paragraph" unicode="&#xb6;" horiz-adv-x="1173" 
d="M590 -102v596q-130 0 -243 62.5t-180 172.5t-67 240t66.5 239t178.5 170.5t243 61.5h489v-127h-370v-1415h-117zM834 -102v1292h118v-1292h-118z" />
    <glyph glyph-name="periodcentered" unicode="&#xb7;" horiz-adv-x="555" 
d="M199 508v164h157v-164h-157z" />
    <glyph glyph-name="cedilla" unicode="&#xb8;" horiz-adv-x="1032" 
d="M463 41l82 -14v-17l-23 -123q64 -9 104 -47t40 -98q0 -83 -56.5 -122.5t-140.5 -39.5q-27 0 -52.5 2.5t-37.5 5.5l-12 2v99q39 -13 86 -13q104 0 104 70q0 33 -31 51.5t-86 18.5l-30 -2z" />
    <glyph glyph-name="onesuperior" unicode="&#xb9;" 
d="M152 866v103h194v592l2 49h-2q-8 -16 -43 -51l-82 -78l-71 75l202 201h107v-788h190v-103h-497z" />
    <glyph glyph-name="ordmasculine" unicode="&#xba;" horiz-adv-x="970" 
d="M483 784q-142 0 -242 98.5t-100 243.5q0 142 100 239t242 97t242 -97t100 -239q0 -145 -100 -243.5t-242 -98.5zM483 889q96 0 163 67.5t67 169.5q0 100 -67 167t-163 67t-162.5 -67t-66.5 -167q0 -102 66.5 -169.5t162.5 -67.5zM176 541v96h621v-96h-621z" />
    <glyph glyph-name="guillemotright" unicode="&#xbb;" horiz-adv-x="1073" 
d="M483 158l336 420l-336 421h152l336 -421l-336 -420h-152zM115 158l336 420l-336 421h151l336 -421l-336 -420h-151z" />
    <glyph glyph-name="onequarter" unicode="&#xbc;" horiz-adv-x="1933" 
d="M649 0h-121l689 1440h118zM129 549v102h195v592l2 49h-2q-8 -16 -43 -51l-82 -78l-72 76l203 201h106v-789h191v-102h-498zM1581 0v233h-434v78l434 580h113v-555h133v-103h-133v-233h-113zM1286 336h295v278l6 127h-4q-32 -55 -65 -100l-232 -301v-4z" />
    <glyph glyph-name="onehalf" unicode="&#xbd;" horiz-adv-x="1929" 
d="M651 0h-121l689 1440h118zM129 549v102h195v592l2 49h-2q-8 -16 -43 -51l-82 -78l-72 76l203 201h106v-789h191v-102h-498zM1212 0q-6 34 -6 63q0 69 24.5 127t64 98.5t86.5 75.5t94.5 66t87 62t64 71t24.5 86q0 66 -47 112t-121 46q-31 0 -61 -10.5t-51 -25t-37.5 -29
t-25.5 -24.5l-8 -11l-73 71q4 5 10.5 14t31 32t52.5 40.5t73 32t93 14.5q126 0 202 -73.5t76 -186.5q0 -61 -23.5 -112.5t-61.5 -87.5t-83.5 -68.5t-92 -62t-85.5 -60t-64.5 -71t-27.5 -87.5h455v-102h-570z" />
    <glyph glyph-name="threequarters" unicode="&#xbe;" horiz-adv-x="1966" 
d="M682 0h-121l688 1440h119zM1614 0v233h-434v78l434 580h112v-555h134v-103h-134v-233h-112zM1319 336h295v278l6 127h-4q-33 -55 -66 -100l-231 -301v-4zM387 528q-55 0 -105.5 14t-82.5 34t-56.5 40t-35.5 34l-11 14l72 77q3 -4 9 -11.5t27 -25.5t44.5 -32t60.5 -25.5
t76 -11.5q74 0 133.5 52.5t59.5 129.5q0 79 -61 125.5t-140 46.5h-68l-28 64l202 235q9 11 22 24t21 20l9 7v4q-39 -6 -76 -6h-316v103h539v-74l-244 -283q47 -6 89.5 -23t81 -47.5t61 -81t22.5 -114.5q0 -120 -88 -204.5t-217 -84.5z" />
    <glyph glyph-name="questiondown" unicode="&#xbf;" horiz-adv-x="901" 
d="M449 872v158h157v-158h-157zM92 -68q0 69 20 127.5t52.5 100.5t72 80t78.5 73t71.5 71.5t52.5 84t20 102.5v82h137v-88q0 -64 -19.5 -120.5t-51 -98t-69.5 -79.5t-76 -73.5t-69.5 -72.5t-51 -83.5t-19.5 -98.5q0 -100 75.5 -168t192.5 -68q62 0 124 21.5t93 43.5l31 21
l75 -102q-5 -5 -15 -13t-42.5 -28t-68 -35.5t-91 -28t-112.5 -12.5q-176 0 -293 102t-117 260z" />
    <glyph glyph-name="Agrave" unicode="&#xc0;" horiz-adv-x="1261" 
d="M1085 0l-165 459h-580l-164 -459h-149l528 1440h152l528 -1440h-150zM633 1290h-4q-31 -118 -56 -186l-192 -522h496l-189 522q-11 30 -25 76.5t-22 77.5zM569 1540l-176 244h162l141 -244h-127z" />
    <glyph glyph-name="Aacute" unicode="&#xc1;" horiz-adv-x="1261" 
d="M1085 0l-165 459h-580l-164 -459h-149l528 1440h152l528 -1440h-150zM633 1290h-4q-31 -118 -56 -186l-192 -522h496l-189 522q-11 30 -25 76.5t-22 77.5zM565 1540l142 244h161l-176 -244h-127z" />
    <glyph glyph-name="Acircumflex" unicode="&#xc2;" horiz-adv-x="1261" 
d="M1085 0l-165 459h-580l-164 -459h-149l528 1440h152l528 -1440h-150zM633 1290h-4q-31 -118 -56 -186l-192 -522h496l-189 522q-11 30 -25 76.5t-22 77.5zM383 1540l170 244h154l172 -244h-136l-110 166h-4l-111 -166h-135z" />
    <glyph glyph-name="Atilde" unicode="&#xc3;" horiz-adv-x="1261" 
d="M1085 0l-165 459h-580l-164 -459h-149l528 1440h152l528 -1440h-150zM633 1290h-4q-31 -118 -56 -186l-192 -522h496l-189 522q-11 30 -25 76.5t-22 77.5zM311 1546q0 240 189 240q38 0 70 -15t54 -37t42 -44t43.5 -37t48.5 -15q24 0 41 14t25.5 37.5t12 45.5t3.5 45h110
q0 -240 -188 -240q-46 0 -85 23t-61 50t-52 50t-60 23q-24 0 -41 -14t-25 -37t-11 -44.5t-3 -44.5h-113z" />
    <glyph glyph-name="Adieresis" unicode="&#xc4;" horiz-adv-x="1261" 
d="M1085 0l-165 459h-580l-164 -459h-149l528 1440h152l528 -1440h-150zM633 1290h-4q-31 -118 -56 -186l-192 -522h496l-189 522q-11 30 -25 76.5t-22 77.5zM723 1608v176h127v-176h-127zM414 1608v176h125v-176h-125z" />
    <glyph glyph-name="Aring" unicode="&#xc5;" horiz-adv-x="1261" 
d="M1085 0l-165 459h-580l-164 -459h-149l528 1440h152l528 -1440h-150zM633 1290h-4q-31 -118 -56 -186l-192 -522h496l-189 522q-11 30 -25 76.5t-22 77.5zM631 1518q-64 0 -109 41t-45 104t45 104t109 41t109.5 -41t45.5 -104t-45.5 -104t-109.5 -41zM631 1595
q30 0 48.5 19t18.5 49q0 31 -18.5 50.5t-48.5 19.5q-29 0 -47.5 -19.5t-18.5 -50.5q0 -29 18.5 -48.5t47.5 -19.5z" />
    <glyph glyph-name="AE" unicode="&#xc6;" horiz-adv-x="1746" 
d="M20 0l592 1440h985v-127h-669v-525h547v-126h-547v-535h706v-127h-848v664h-348l-268 -664h-150zM702 1313l-213 -527h297v527h-84z" />
    <glyph glyph-name="Ccedilla" unicode="&#xc7;" horiz-adv-x="1492" 
d="M115 729q0 154 55.5 290.5t151 234t230 154t286.5 56.5q96 0 185 -19t147 -46.5t102 -55t64 -46.5l20 -19l-76 -104q-7 6 -20 17t-56.5 38.5t-91 48.5t-121 38t-149.5 17q-166 0 -299 -79.5t-207 -217t-74 -305.5q0 -171 74 -313.5t208.5 -227t301.5 -84.5q81 0 159.5 20
t131.5 48t94.5 56.5t61.5 48.5l20 20l82 -100q-8 -9 -23 -23.5t-66 -52t-108 -67t-148 -54.5t-186 -27l-16 -88q64 -9 103.5 -47t39.5 -98q0 -83 -56 -122.5t-140 -39.5q-27 0 -53 2.5t-38 5.5l-12 2v99q39 -13 86 -13q105 0 105 70q0 33 -31 51.5t-86 18.5l-31 -2l39 166
q-191 16 -342 119t-234 268t-83 362z" />
    <glyph glyph-name="Egrave" unicode="&#xc8;" horiz-adv-x="1169" 
d="M209 0v1440h811v-127h-670v-525h547v-126h-547v-535h707v-127h-848zM575 1540l-176 244h162l141 -244h-127z" />
    <glyph glyph-name="Eacute" unicode="&#xc9;" horiz-adv-x="1169" 
d="M209 0v1440h811v-127h-670v-525h547v-126h-547v-535h707v-127h-848zM571 1540l142 244h161l-176 -244h-127z" />
    <glyph glyph-name="Ecircumflex" unicode="&#xca;" horiz-adv-x="1169" 
d="M209 0v1440h811v-127h-670v-525h547v-126h-547v-535h707v-127h-848zM391 1540l170 244h154l172 -244h-135l-111 166h-4l-111 -166h-135z" />
    <glyph glyph-name="Edieresis" unicode="&#xcb;" horiz-adv-x="1169" 
d="M209 0v1440h811v-127h-670v-525h547v-126h-547v-535h707v-127h-848zM731 1608v176h127v-176h-127zM422 1608v176h125v-176h-125z" />
    <glyph glyph-name="Igrave" unicode="&#xcc;" horiz-adv-x="559" 
d="M209 0v1440h141v-1440h-141zM219 1540l-176 244h162l141 -244h-127z" />
    <glyph glyph-name="Iacute" unicode="&#xcd;" horiz-adv-x="559" 
d="M209 0v1440h141v-1440h-141zM213 1540l141 244h162l-176 -244h-127z" />
    <glyph glyph-name="Icircumflex" unicode="&#xce;" horiz-adv-x="559" 
d="M209 0v1440h141v-1440h-141zM33 1540l170 244h153l172 -244h-135l-110 166h-4l-111 -166h-135z" />
    <glyph glyph-name="Idieresis" unicode="&#xcf;" horiz-adv-x="559" 
d="M209 0v1440h141v-1440h-141zM373 1608v176h127v-176h-127zM63 1608v176h125v-176h-125z" />
    <glyph glyph-name="Eth" unicode="&#xd0;" horiz-adv-x="1544" 
d="M119 662v122h123v656h463q330 0 526 -191t196 -528q0 -340 -196 -530.5t-526 -190.5h-463v662h-123zM383 127h307q271 0 430.5 155t159.5 439q0 282 -159.5 437t-430.5 155h-307v-529h342v-122h-342v-535z" />
    <glyph glyph-name="Ntilde" unicode="&#xd1;" horiz-adv-x="1542" 
d="M209 0v1440h137l735 -1037q22 -32 51.5 -80.5t48.5 -80.5l19 -33h4q-12 118 -12 194v1037h141v-1440h-137l-735 1036q-22 32 -51.5 81t-48.5 81l-19 33h-4q12 -119 12 -195v-1036h-141zM453 1546q0 240 188 240q38 0 70 -15t54 -37t42 -44t43.5 -37t48.5 -15q24 0 41 14
t25.5 37.5t12 45.5t3.5 45h111q0 -240 -189 -240q-46 0 -85 23t-61 50t-52 50t-60 23q-24 0 -41 -14t-25 -37t-11 -44.5t-3 -44.5h-112z" />
    <glyph glyph-name="Ograve" unicode="&#xd2;" horiz-adv-x="1687" 
d="M111 729q0 152 57.5 289t155.5 234.5t233.5 154.5t286.5 57t286.5 -57t233.5 -154.5t155.5 -234.5t57.5 -289q0 -155 -57.5 -295t-155.5 -240.5t-234 -159.5t-286 -59t-286 59t-234 159.5t-155.5 240.5t-57.5 295zM258 729q0 -130 46 -245.5t124.5 -198.5t187 -131
t228.5 -48t228 48.5t186.5 131t125 198t46.5 245.5q0 169 -78.5 308t-213 217.5t-294.5 78.5q-121 0 -229 -46.5t-186.5 -126t-124.5 -192t-46 -239.5zM780 1540l-176 244h162l141 -244h-127z" />
    <glyph glyph-name="Oacute" unicode="&#xd3;" horiz-adv-x="1687" 
d="M111 729q0 152 57.5 289t155.5 234.5t233.5 154.5t286.5 57t286.5 -57t233.5 -154.5t155.5 -234.5t57.5 -289q0 -155 -57.5 -295t-155.5 -240.5t-234 -159.5t-286 -59t-286 59t-234 159.5t-155.5 240.5t-57.5 295zM258 729q0 -130 46 -245.5t124.5 -198.5t187 -131
t228.5 -48t228 48.5t186.5 131t125 198t46.5 245.5q0 169 -78.5 308t-213 217.5t-294.5 78.5q-121 0 -229 -46.5t-186.5 -126t-124.5 -192t-46 -239.5zM776 1540l142 244h161l-176 -244h-127z" />
    <glyph glyph-name="Ocircumflex" unicode="&#xd4;" horiz-adv-x="1687" 
d="M111 729q0 152 57.5 289t155.5 234.5t233.5 154.5t286.5 57t286.5 -57t233.5 -154.5t155.5 -234.5t57.5 -289q0 -155 -57.5 -295t-155.5 -240.5t-234 -159.5t-286 -59t-286 59t-234 159.5t-155.5 240.5t-57.5 295zM258 729q0 -130 46 -245.5t124.5 -198.5t187 -131
t228.5 -48t228 48.5t186.5 131t125 198t46.5 245.5q0 169 -78.5 308t-213 217.5t-294.5 78.5q-121 0 -229 -46.5t-186.5 -126t-124.5 -192t-46 -239.5zM596 1540l170 244h154l172 -244h-136l-110 166h-4l-111 -166h-135z" />
    <glyph glyph-name="Otilde" unicode="&#xd5;" horiz-adv-x="1687" 
d="M111 729q0 152 57.5 289t155.5 234.5t233.5 154.5t286.5 57t286.5 -57t233.5 -154.5t155.5 -234.5t57.5 -289q0 -155 -57.5 -295t-155.5 -240.5t-234 -159.5t-286 -59t-286 59t-234 159.5t-155.5 240.5t-57.5 295zM258 729q0 -130 46 -245.5t124.5 -198.5t187 -131
t228.5 -48t228 48.5t186.5 131t125 198t46.5 245.5q0 169 -78.5 308t-213 217.5t-294.5 78.5q-121 0 -229 -46.5t-186.5 -126t-124.5 -192t-46 -239.5zM524 1546q0 240 189 240q38 0 70 -15t54 -37t42 -44t43.5 -37t48.5 -15q24 0 41 14t25.5 37.5t12 45.5t3.5 45h110
q0 -240 -188 -240q-46 0 -85 23t-61 50t-52 50t-60 23q-24 0 -41 -14t-25 -37t-11 -44.5t-3 -44.5h-113z" />
    <glyph glyph-name="Odieresis" unicode="&#xd6;" horiz-adv-x="1687" 
d="M111 729q0 152 57.5 289t155.5 234.5t233.5 154.5t286.5 57t286.5 -57t233.5 -154.5t155.5 -234.5t57.5 -289q0 -155 -57.5 -295t-155.5 -240.5t-234 -159.5t-286 -59t-286 59t-234 159.5t-155.5 240.5t-57.5 295zM258 729q0 -130 46 -245.5t124.5 -198.5t187 -131
t228.5 -48t228 48.5t186.5 131t125 198t46.5 245.5q0 169 -78.5 308t-213 217.5t-294.5 78.5q-121 0 -229 -46.5t-186.5 -126t-124.5 -192t-46 -239.5zM936 1608v176h127v-176h-127zM627 1608v176h125v-176h-125z" />
    <glyph glyph-name="multiply" unicode="&#xd7;" horiz-adv-x="1341" 
d="M147 84l443 498l-443 497l84 84l439 -493l438 493l84 -84l-444 -497l444 -498l-84 -84l-438 494l-439 -494z" />
    <glyph glyph-name="Oslash" unicode="&#xd8;" horiz-adv-x="1693" 
d="M115 729q0 152 57.5 289t155.5 234.5t233.5 154.5t286.5 57q208 0 387 -108l96 135l84 -61l-96 -136q122 -102 192 -249t70 -316q0 -155 -57.5 -295t-155.5 -240.5t-234 -159.5t-286 -59q-214 0 -393 115l-99 -139l-86 59l101 142q-120 104 -188 254.5t-68 322.5z
M1434 729q0 135 -52 252t-143 201l-704 -981q145 -95 313 -95q120 0 228 48.5t186.5 131t125 198t46.5 245.5zM262 729q0 -137 50.5 -256.5t140.5 -206.5l702 979q-144 88 -307 88q-121 0 -229 -46.5t-186.5 -126t-124.5 -192t-46 -239.5z" />
    <glyph glyph-name="Ugrave" unicode="&#xd9;" horiz-adv-x="1482" 
d="M190 502v938h144v-936q0 -185 110 -291.5t297 -106.5q188 0 299 107.5t111 294.5v932h141v-938q0 -238 -151.5 -382.5t-397.5 -144.5q-247 0 -400 144.5t-153 382.5zM680 1540l-176 244h162l141 -244h-127z" />
    <glyph glyph-name="Uacute" unicode="&#xda;" horiz-adv-x="1482" 
d="M190 502v938h144v-936q0 -185 110 -291.5t297 -106.5q188 0 299 107.5t111 294.5v932h141v-938q0 -238 -151.5 -382.5t-397.5 -144.5q-247 0 -400 144.5t-153 382.5zM676 1540l141 244h162l-176 -244h-127z" />
    <glyph glyph-name="Ucircumflex" unicode="&#xdb;" horiz-adv-x="1482" 
d="M190 502v938h144v-936q0 -185 110 -291.5t297 -106.5q188 0 299 107.5t111 294.5v932h141v-938q0 -238 -151.5 -382.5t-397.5 -144.5q-247 0 -400 144.5t-153 382.5zM494 1540l170 244h153l172 -244h-135l-111 166h-4l-110 -166h-135z" />
    <glyph glyph-name="Udieresis" unicode="&#xdc;" horiz-adv-x="1482" 
d="M190 502v938h144v-936q0 -185 110 -291.5t297 -106.5q188 0 299 107.5t111 294.5v932h141v-938q0 -238 -151.5 -382.5t-397.5 -144.5q-247 0 -400 144.5t-153 382.5zM834 1608v176h127v-176h-127zM524 1608v176h125v-176h-125z" />
    <glyph glyph-name="Yacute" unicode="&#xdd;" horiz-adv-x="1175" 
d="M516 0v618l-485 822h162l305 -522q19 -33 41 -76t35 -70l12 -27h4q43 97 88 173l305 522h160l-484 -822v-618h-143zM520 1540l142 244h161l-176 -244h-127z" />
    <glyph glyph-name="Thorn" unicode="&#xde;" horiz-adv-x="1226" 
d="M209 0v1440h141v-256h357q195 0 319.5 -119t124.5 -317q0 -197 -126 -318t-323 -121h-352v-309h-141zM350 436h338q146 0 231 83.5t85 228.5q0 146 -85 227.5t-229 81.5h-340v-621z" />
    <glyph glyph-name="germandbls" unicode="&#xdf;" horiz-adv-x="1173" 
d="M168 0v1087q0 89 35.5 162t94 119t131.5 71t151 25q159 0 258.5 -90t99.5 -215q0 -58 -23.5 -109.5t-57 -87.5t-66.5 -68.5t-56.5 -67.5t-23.5 -70q0 -28 22 -56t57 -54t77.5 -54t85.5 -60.5t78 -68.5t57 -83.5t22 -100.5q0 -94 -48 -162.5t-121.5 -99.5t-162.5 -31
q-87 0 -162.5 16.5t-107.5 32.5l-33 16v133q14 -8 39 -20t101.5 -32.5t152.5 -20.5q85 0 143 44t58 128q0 53 -41.5 101t-100.5 86t-118 77.5t-100.5 92t-41.5 112.5q0 49 23.5 93.5t57 79t67 68.5t57 76t23.5 88q0 71 -59 125.5t-163 54.5q-107 0 -186.5 -69.5
t-79.5 -190.5v-1077h-139z" />
    <glyph glyph-name="agrave" unicode="&#xe0;" horiz-adv-x="1064" 
d="M84 281q0 72 26.5 129t66 93.5t100.5 63.5t113.5 40t122.5 20t110 8.5t92 1.5h57v27q0 266 -256 266q-76 0 -148.5 -25t-107.5 -49l-35 -25l-65 107q6 5 16 13t46 28t75.5 35.5t101.5 28t127 12.5q187 0 286 -101.5t99 -294.5v-659h-133v113l4 86h-4q-2 -5 -5.5 -13
t-17.5 -31t-31 -44.5t-46.5 -47t-62.5 -44.5t-80.5 -31.5t-100.5 -12.5q-52 0 -102.5 12t-95 37t-78.5 60.5t-54 86t-20 110.5zM227 289q0 -78 60.5 -136.5t169.5 -58.5q94 0 168 59.5t110.5 145.5t36.5 178v45h-59q-46 0 -79 -1t-87.5 -5.5t-94 -13.5t-84.5 -26t-73.5 -41
t-48 -61.5t-19.5 -84.5zM467 1196l-176 244h162l141 -244h-127z" />
    <glyph glyph-name="aacute" unicode="&#xe1;" horiz-adv-x="1064" 
d="M84 281q0 72 26.5 129t66 93.5t100.5 63.5t113.5 40t122.5 20t110 8.5t92 1.5h57v27q0 266 -256 266q-76 0 -148.5 -25t-107.5 -49l-35 -25l-65 107q6 5 16 13t46 28t75.5 35.5t101.5 28t127 12.5q187 0 286 -101.5t99 -294.5v-659h-133v113l4 86h-4q-2 -5 -5.5 -13
t-17.5 -31t-31 -44.5t-46.5 -47t-62.5 -44.5t-80.5 -31.5t-100.5 -12.5q-52 0 -102.5 12t-95 37t-78.5 60.5t-54 86t-20 110.5zM227 289q0 -78 60.5 -136.5t169.5 -58.5q94 0 168 59.5t110.5 145.5t36.5 178v45h-59q-46 0 -79 -1t-87.5 -5.5t-94 -13.5t-84.5 -26t-73.5 -41
t-48 -61.5t-19.5 -84.5zM461 1196l141 244h162l-176 -244h-127z" />
    <glyph glyph-name="acircumflex" unicode="&#xe2;" horiz-adv-x="1064" 
d="M84 281q0 72 26.5 129t66 93.5t100.5 63.5t113.5 40t122.5 20t110 8.5t92 1.5h57v27q0 266 -256 266q-76 0 -148.5 -25t-107.5 -49l-35 -25l-65 107q6 5 16 13t46 28t75.5 35.5t101.5 28t127 12.5q187 0 286 -101.5t99 -294.5v-659h-133v113l4 86h-4q-2 -5 -5.5 -13
t-17.5 -31t-31 -44.5t-46.5 -47t-62.5 -44.5t-80.5 -31.5t-100.5 -12.5q-52 0 -102.5 12t-95 37t-78.5 60.5t-54 86t-20 110.5zM227 289q0 -78 60.5 -136.5t169.5 -58.5q94 0 168 59.5t110.5 145.5t36.5 178v45h-59q-46 0 -79 -1t-87.5 -5.5t-94 -13.5t-84.5 -26t-73.5 -41
t-48 -61.5t-19.5 -84.5zM283 1196l170 244h153l172 -244h-135l-111 166h-4l-110 -166h-135z" />
    <glyph glyph-name="atilde" unicode="&#xe3;" horiz-adv-x="1064" 
d="M84 281q0 72 26.5 129t66 93.5t100.5 63.5t113.5 40t122.5 20t110 8.5t92 1.5h57v27q0 266 -256 266q-76 0 -148.5 -25t-107.5 -49l-35 -25l-65 107q6 5 16 13t46 28t75.5 35.5t101.5 28t127 12.5q187 0 286 -101.5t99 -294.5v-659h-133v113l4 86h-4q-2 -5 -5.5 -13
t-17.5 -31t-31 -44.5t-46.5 -47t-62.5 -44.5t-80.5 -31.5t-100.5 -12.5q-52 0 -102.5 12t-95 37t-78.5 60.5t-54 86t-20 110.5zM227 289q0 -78 60.5 -136.5t169.5 -58.5q94 0 168 59.5t110.5 145.5t36.5 178v45h-59q-46 0 -79 -1t-87.5 -5.5t-94 -13.5t-84.5 -26t-73.5 -41
t-48 -61.5t-19.5 -84.5zM211 1202q0 240 188 240q38 0 70 -15t54 -37t42 -44t43.5 -37t48.5 -15q24 0 41 14t25.5 37.5t12 45.5t3.5 45h111q0 -240 -188 -240q-38 0 -70 15t-54.5 36t-42.5 42.5t-43.5 36.5t-48.5 15q-24 0 -41 -13.5t-24.5 -36.5t-10.5 -44.5t-3 -44.5h-113
z" />
    <glyph glyph-name="adieresis" unicode="&#xe4;" horiz-adv-x="1064" 
d="M84 281q0 72 26.5 129t66 93.5t100.5 63.5t113.5 40t122.5 20t110 8.5t92 1.5h57v27q0 266 -256 266q-76 0 -148.5 -25t-107.5 -49l-35 -25l-65 107q6 5 16 13t46 28t75.5 35.5t101.5 28t127 12.5q187 0 286 -101.5t99 -294.5v-659h-133v113l4 86h-4q-2 -5 -5.5 -13
t-17.5 -31t-31 -44.5t-46.5 -47t-62.5 -44.5t-80.5 -31.5t-100.5 -12.5q-52 0 -102.5 12t-95 37t-78.5 60.5t-54 86t-20 110.5zM227 289q0 -78 60.5 -136.5t169.5 -58.5q94 0 168 59.5t110.5 145.5t36.5 178v45h-59q-46 0 -79 -1t-87.5 -5.5t-94 -13.5t-84.5 -26t-73.5 -41
t-48 -61.5t-19.5 -84.5zM623 1264v176h127v-176h-127zM313 1264v176h125v-176h-125z" />
    <glyph glyph-name="aring" unicode="&#xe5;" horiz-adv-x="1064" 
d="M84 281q0 72 26.5 129t66 93.5t100.5 63.5t113.5 40t122.5 20t110 8.5t92 1.5h57v27q0 266 -256 266q-76 0 -148.5 -25t-107.5 -49l-35 -25l-65 107q6 5 16 13t46 28t75.5 35.5t101.5 28t127 12.5q187 0 286 -101.5t99 -294.5v-659h-133v113l4 86h-4q-2 -5 -5.5 -13
t-17.5 -31t-31 -44.5t-46.5 -47t-62.5 -44.5t-80.5 -31.5t-100.5 -12.5q-52 0 -102.5 12t-95 37t-78.5 60.5t-54 86t-20 110.5zM227 289q0 -78 60.5 -136.5t169.5 -58.5q94 0 168 59.5t110.5 145.5t36.5 178v45h-59q-46 0 -79 -1t-87.5 -5.5t-94 -13.5t-84.5 -26t-73.5 -41
t-48 -61.5t-19.5 -84.5zM528 1174q-64 0 -108.5 41t-44.5 104t44.5 104t108.5 41q65 0 110.5 -41t45.5 -104t-45.5 -104t-110.5 -41zM528 1251q30 0 49 19t19 49q0 31 -18.5 50.5t-49.5 19.5q-29 0 -47 -19.5t-18 -50.5q0 -30 18 -49t47 -19z" />
    <glyph glyph-name="ae" unicode="&#xe6;" horiz-adv-x="1781" 
d="M84 281q0 55 14 101t37 79.5t59 60t71.5 44t85 30t89 18.5t93 10t87.5 4.5t82 0.5h68v35q0 142 -68.5 204t-193.5 62q-73 0 -144 -25t-106 -49l-35 -25l-63 105q5 5 15.5 13t45 28.5t73 36t99 28.5t123.5 13q280 0 348 -213h4q63 105 162.5 159t226.5 54q133 0 231.5 -65
t146.5 -168.5t48 -229.5l-4 -78h-774q4 -198 111 -306t274 -108q52 0 103.5 13t87.5 31t64.5 36.5t42.5 31.5l14 13l63 -106q-6 -6 -17.5 -15.5t-49.5 -34.5t-79.5 -44t-105.5 -34.5t-129 -15.5q-157 0 -276.5 76.5t-176.5 210.5h-4q-7 -22 -20 -50.5t-45 -72.5t-73 -78.5
t-107.5 -60t-143.5 -25.5q-149 0 -251.5 81.5t-102.5 224.5zM913 629h629q-6 152 -89 229.5t-202 77.5q-132 0 -223 -78t-115 -229zM227 289q0 -81 61 -138t171 -57q94 0 167.5 59.5t109.5 146t36 179.5v35h-121q-53 0 -93 -2t-93.5 -9t-92 -22.5t-73.5 -39t-53.5 -62.5
t-18.5 -90z" />
    <glyph glyph-name="ccedilla" unicode="&#xe7;" horiz-adv-x="1126" 
d="M98 514q0 155 72 279.5t195.5 193t273.5 68.5q71 0 135.5 -15t106.5 -37t74 -44t47 -37l14 -15l-72 -104l-13.5 13.5t-38.5 30t-62.5 38t-83.5 30t-103 13.5q-171 0 -286 -116t-115 -298q0 -180 116.5 -297t288.5 -117q59 0 114.5 15t92.5 36.5t66.5 43t43.5 36.5l13 15
l63 -109q-5 -6 -15.5 -16.5t-47 -37.5t-77.5 -48t-107 -39.5t-136 -20.5l-16 -88q64 -9 103.5 -47t39.5 -98q0 -83 -56 -122.5t-140 -39.5q-27 0 -53 2.5t-38 5.5l-12 2v99q39 -13 86 -13q105 0 105 70q0 33 -31 51.5t-86 18.5l-31 -2l39 166q-206 24 -337.5 170t-131.5 364
z" />
    <glyph glyph-name="egrave" unicode="&#xe8;" horiz-adv-x="1132" 
d="M96 514q0 124 40 227t109.5 171t161.5 105.5t197 37.5q137 0 236.5 -66t146.5 -172t47 -237l-4 -72h-790q3 -128 58.5 -222t144 -140t196.5 -46q53 0 104.5 13t87.5 31t64.5 36.5t42.5 31.5l14 13l64 -106q-6 -6 -17.5 -15.5t-50 -34.5t-80 -44t-105 -34.5t-128.5 -15.5
q-232 0 -385.5 151.5t-153.5 387.5zM246 623h647q-6 154 -88 234.5t-205 80.5q-134 0 -232 -82.5t-122 -232.5zM545 1196l-176 244h161l142 -244h-127z" />
    <glyph glyph-name="eacute" unicode="&#xe9;" horiz-adv-x="1132" 
d="M96 514q0 124 40 227t109.5 171t161.5 105.5t197 37.5q137 0 236.5 -66t146.5 -172t47 -237l-4 -72h-790q3 -128 58.5 -222t144 -140t196.5 -46q53 0 104.5 13t87.5 31t64.5 36.5t42.5 31.5l14 13l64 -106q-6 -6 -17.5 -15.5t-50 -34.5t-80 -44t-105 -34.5t-128.5 -15.5
q-232 0 -385.5 151.5t-153.5 387.5zM246 623h647q-6 154 -88 234.5t-205 80.5q-134 0 -232 -82.5t-122 -232.5zM539 1196l141 244h162l-176 -244h-127z" />
    <glyph glyph-name="ecircumflex" unicode="&#xea;" horiz-adv-x="1132" 
d="M96 514q0 124 40 227t109.5 171t161.5 105.5t197 37.5q137 0 236.5 -66t146.5 -172t47 -237l-4 -72h-790q3 -128 58.5 -222t144 -140t196.5 -46q53 0 104.5 13t87.5 31t64.5 36.5t42.5 31.5l14 13l64 -106q-6 -6 -17.5 -15.5t-50 -34.5t-80 -44t-105 -34.5t-128.5 -15.5
q-232 0 -385.5 151.5t-153.5 387.5zM246 623h647q-6 154 -88 234.5t-205 80.5q-134 0 -232 -82.5t-122 -232.5zM358 1196l170 244h154l172 -244h-135l-111 166h-4l-110 -166h-136z" />
    <glyph glyph-name="edieresis" unicode="&#xeb;" horiz-adv-x="1132" 
d="M96 514q0 124 40 227t109.5 171t161.5 105.5t197 37.5q137 0 236.5 -66t146.5 -172t47 -237l-4 -72h-790q3 -128 58.5 -222t144 -140t196.5 -46q53 0 104.5 13t87.5 31t64.5 36.5t42.5 31.5l14 13l64 -106q-6 -6 -17.5 -15.5t-50 -34.5t-80 -44t-105 -34.5t-128.5 -15.5
q-232 0 -385.5 151.5t-153.5 387.5zM246 623h647q-6 154 -88 234.5t-205 80.5q-134 0 -232 -82.5t-122 -232.5zM698 1264v176h127v-176h-127zM389 1264v176h125v-176h-125z" />
    <glyph glyph-name="igrave" unicode="&#xec;" horiz-adv-x="475" 
d="M176 1196l-176 244h162l141 -244h-127zM168 0v1030h139v-1030h-139z" />
    <glyph glyph-name="iacute" unicode="&#xed;" horiz-adv-x="475" 
d="M172 1196l141 244h162l-176 -244h-127zM168 0v1030h139v-1030h-139z" />
    <glyph glyph-name="icircumflex" unicode="&#xee;" horiz-adv-x="475" 
d="M168 0v1030h139v-1030h-139zM-8 1196l170 244h153l172 -244h-135l-110 166h-4l-111 -166h-135z" />
    <glyph glyph-name="idieresis" unicode="&#xef;" horiz-adv-x="475" 
d="M332 1264v176h127v-176h-127zM23 1264v176h124v-176h-124zM168 0v1030h139v-1030h-139z" />
    <glyph glyph-name="eth" unicode="&#xf0;" horiz-adv-x="1204" 
d="M100 475q0 93 32 178.5t91.5 153.5t154.5 108.5t212 40.5q55 0 106 -11.5t83.5 -27.5t57.5 -32t37 -27l11 -12h4q-69 198 -254 325l-361 -163l-26 98l276 129q-126 64 -291 104l41 119q238 -60 402 -158l268 121l27 -98l-199 -92q142 -111 225.5 -280.5t83.5 -391.5
q0 -85 -18 -166.5t-58 -157.5t-98 -133.5t-144 -92t-190 -34.5q-109 0 -200 42.5t-150 113t-91 160t-32 184.5zM244 473q0 -96 37.5 -180t115.5 -138.5t181 -54.5q73 0 134.5 26t102.5 69t69.5 100t41 116.5t12.5 120.5q0 133 -92.5 219.5t-241.5 86.5q-89 0 -159.5 -31
t-113.5 -83.5t-65 -116.5t-22 -134z" />
    <glyph glyph-name="ntilde" unicode="&#xf1;" horiz-adv-x="1214" 
d="M168 0v1030h137v-153l-4 -82h4q12 31 33.5 63.5t57.5 68.5t80.5 64t107.5 46t133 18q184 0 264 -100.5t80 -299.5v-655h-139v618q0 55 -4 95t-17.5 82t-37.5 68.5t-65.5 43.5t-99.5 17q-131 0 -235 -81.5t-139 -209.5q-17 -61 -17 -139v-494h-139zM317 1202
q0 240 189 240q38 0 70 -15t54 -37t42 -44t43.5 -37t48.5 -15q24 0 41 14t25.5 37.5t12 45.5t3.5 45h110q0 -240 -188 -240q-38 0 -70 15t-54 36t-42 42.5t-43.5 36.5t-48.5 15q-31 0 -50.5 -25t-24.5 -53t-5 -61h-113z" />
    <glyph glyph-name="ograve" unicode="&#xf2;" horiz-adv-x="1273" 
d="M92 520q0 150 73 273t198 192.5t274 69.5t274 -69.5t198 -192.5t73 -273q0 -114 -43 -216t-116.5 -173.5t-174 -113.5t-211.5 -42t-211.5 42t-174 113.5t-116.5 173.5t-43 216zM236 520q0 -179 117 -299.5t284 -120.5t284 120.5t117 299.5q0 173 -117 290.5t-284 117.5
t-284 -117.5t-117 -290.5zM575 1196l-176 244h162l141 -244h-127z" />
    <glyph glyph-name="oacute" unicode="&#xf3;" horiz-adv-x="1273" 
d="M92 520q0 150 73 273t198 192.5t274 69.5t274 -69.5t198 -192.5t73 -273q0 -114 -43 -216t-116.5 -173.5t-174 -113.5t-211.5 -42t-211.5 42t-174 113.5t-116.5 173.5t-43 216zM236 520q0 -179 117 -299.5t284 -120.5t284 120.5t117 299.5q0 173 -117 290.5t-284 117.5
t-284 -117.5t-117 -290.5zM571 1196l142 244h161l-176 -244h-127z" />
    <glyph glyph-name="ocircumflex" unicode="&#xf4;" horiz-adv-x="1273" 
d="M92 520q0 150 73 273t198 192.5t274 69.5t274 -69.5t198 -192.5t73 -273q0 -114 -43 -216t-116.5 -173.5t-174 -113.5t-211.5 -42t-211.5 42t-174 113.5t-116.5 173.5t-43 216zM236 520q0 -179 117 -299.5t284 -120.5t284 120.5t117 299.5q0 173 -117 290.5t-284 117.5
t-284 -117.5t-117 -290.5zM389 1196l170 244h154l172 -244h-135l-111 166h-4l-111 -166h-135z" />
    <glyph glyph-name="otilde" unicode="&#xf5;" horiz-adv-x="1273" 
d="M92 520q0 150 73 273t198 192.5t274 69.5t274 -69.5t198 -192.5t73 -273q0 -114 -43 -216t-116.5 -173.5t-174 -113.5t-211.5 -42t-211.5 42t-174 113.5t-116.5 173.5t-43 216zM236 520q0 -179 117 -299.5t284 -120.5t284 120.5t117 299.5q0 173 -117 290.5t-284 117.5
t-284 -117.5t-117 -290.5zM317 1202q0 240 189 240q38 0 70 -15t54 -37t42 -44t43.5 -37t48.5 -15q24 0 41 14t25.5 37.5t12 45.5t3.5 45h110q0 -240 -188 -240q-38 0 -70 15t-54 36t-42 42.5t-43.5 36.5t-48.5 15q-31 0 -50.5 -25t-24.5 -53t-5 -61h-113z" />
    <glyph glyph-name="odieresis" unicode="&#xf6;" horiz-adv-x="1273" 
d="M92 520q0 150 73 273t198 192.5t274 69.5t274 -69.5t198 -192.5t73 -273q0 -114 -43 -216t-116.5 -173.5t-174 -113.5t-211.5 -42t-211.5 42t-174 113.5t-116.5 173.5t-43 216zM236 520q0 -179 117 -299.5t284 -120.5t284 120.5t117 299.5q0 173 -117 290.5t-284 117.5
t-284 -117.5t-117 -290.5zM729 1264v176h127v-176h-127zM420 1264v176h125v-176h-125z" />
    <glyph glyph-name="divide" unicode="&#xf7;" horiz-adv-x="1323" 
d="M584 887v151h153v-151h-153zM160 522v119h1003v-119h-1003zM584 125v151h153v-151h-153z" />
    <glyph glyph-name="oslash" unicode="&#xf8;" horiz-adv-x="1277" 
d="M94 520q0 150 73 273t198 192.5t274 69.5q150 0 279 -74l79 111l84 -62l-77 -110q85 -73 132.5 -177t47.5 -223q0 -114 -43 -216t-116.5 -173.5t-174 -113.5t-211.5 -42q-138 0 -264 66l-78 -109l-84 62l76 104q-91 75 -143 184.5t-52 237.5zM238 520q0 -188 129 -311
l475 663q-94 56 -203 56q-167 0 -284 -117.5t-117 -290.5zM1040 520q0 173 -116 289l-473 -662q83 -47 188 -47q167 0 284 120.5t117 299.5z" />
    <glyph glyph-name="ugrave" unicode="&#xf9;" horiz-adv-x="1204" 
d="M154 375v655h139v-618q0 -55 4 -95t17.5 -82t37 -68.5t65 -43.5t99.5 -17q114 0 202.5 61.5t133.5 159t45 210.5v493h139v-1030h-135v154l4 82h-4q-17 -41 -49.5 -83.5t-81.5 -84t-120.5 -67.5t-151.5 -26q-179 0 -261.5 98t-82.5 302zM535 1196l-177 244h162l142 -244
h-127z" />
    <glyph glyph-name="uacute" unicode="&#xfa;" horiz-adv-x="1204" 
d="M154 375v655h139v-618q0 -55 4 -95t17.5 -82t37 -68.5t65 -43.5t99.5 -17q114 0 202.5 61.5t133.5 159t45 210.5v493h139v-1030h-135v154l4 82h-4q-17 -41 -49.5 -83.5t-81.5 -84t-120.5 -67.5t-151.5 -26q-179 0 -261.5 98t-82.5 302zM528 1196l142 244h161l-176 -244
h-127z" />
    <glyph glyph-name="ucircumflex" unicode="&#xfb;" horiz-adv-x="1204" 
d="M154 375v655h139v-618q0 -55 4 -95t17.5 -82t37 -68.5t65 -43.5t99.5 -17q114 0 202.5 61.5t133.5 159t45 210.5v493h139v-1030h-135v154l4 82h-4q-17 -41 -49.5 -83.5t-81.5 -84t-120.5 -67.5t-151.5 -26q-179 0 -261.5 98t-82.5 302zM348 1196l170 244h154l172 -244
h-135l-111 166h-4l-111 -166h-135z" />
    <glyph glyph-name="udieresis" unicode="&#xfc;" horiz-adv-x="1204" 
d="M154 375v655h139v-618q0 -55 4 -95t17.5 -82t37 -68.5t65 -43.5t99.5 -17q114 0 202.5 61.5t133.5 159t45 210.5v493h139v-1030h-135v154l4 82h-4q-17 -41 -49.5 -83.5t-81.5 -84t-120.5 -67.5t-151.5 -26q-179 0 -261.5 98t-82.5 302zM688 1264v176h127v-176h-127z
M379 1264v176h125v-176h-125z" />
    <glyph glyph-name="yacute" unicode="&#xfd;" horiz-adv-x="1021" 
d="M14 -369l54 111q6 -5 17.5 -13t43.5 -21t61 -13q122 0 195 168l64 145l-431 1022h154l303 -751l37 -109h4q15 58 35 109l297 751h151l-507 -1245q-40 -100 -118 -157.5t-179 -57.5q-47 0 -92.5 15t-66.5 31zM446 1196l142 244h162l-177 -244h-127z" />
    <glyph glyph-name="thorn" unicode="&#xfe;" horiz-adv-x="1206" 
d="M168 -410v1850h139v-498l-2 -84h4q1 1 12.5 18.5t26.5 38t44 46.5t63.5 46t87 34t112.5 14q137 0 240 -69t157 -191t54 -279q0 -242 -128.5 -391.5t-332.5 -149.5q-71 0 -131.5 20.5t-97 49.5t-62.5 57.5t-36 49.5l-11 20h-4q4 -37 4 -90v-492h-139zM303 514
q0 -173 89.5 -293.5t240.5 -120.5q142 0 236 113.5t94 302.5q0 185 -90.5 298.5t-233.5 113.5q-68 0 -127 -24t-106.5 -72t-75 -129.5t-27.5 -188.5z" />
    <glyph glyph-name="ydieresis" unicode="&#xff;" horiz-adv-x="1021" 
d="M14 -369l54 111q6 -5 17.5 -13t43.5 -21t61 -13q122 0 195 168l64 145l-431 1022h154l303 -751l37 -109h4q15 58 35 109l297 751h151l-507 -1245q-40 -100 -118 -157.5t-179 -57.5q-47 0 -92.5 15t-66.5 31zM606 1264v176h127v-176h-127zM297 1264v176h125v-176h-125z
" />
    <glyph glyph-name="Amacron" unicode="&#x100;" horiz-adv-x="1261" 
d="M1085 0l-165 459h-580l-164 -459h-149l528 1440h152l528 -1440h-150zM633 1290h-4q-31 -118 -56 -186l-192 -522h496l-189 522q-11 30 -25 76.5t-22 77.5zM379 1608v112h504v-112h-504z" />
    <glyph glyph-name="amacron" unicode="&#x101;" horiz-adv-x="1064" 
d="M84 281q0 72 26.5 129t66 93.5t100.5 63.5t113.5 40t122.5 20t110 8.5t92 1.5h57v27q0 266 -256 266q-76 0 -148.5 -25t-107.5 -49l-35 -25l-65 107q6 5 16 13t46 28t75.5 35.5t101.5 28t127 12.5q187 0 286 -101.5t99 -294.5v-659h-133v113l4 86h-4q-2 -5 -5.5 -13
t-17.5 -31t-31 -44.5t-46.5 -47t-62.5 -44.5t-80.5 -31.5t-100.5 -12.5q-52 0 -102.5 12t-95 37t-78.5 60.5t-54 86t-20 110.5zM227 289q0 -78 60.5 -136.5t169.5 -58.5q94 0 168 59.5t110.5 145.5t36.5 178v45h-59q-46 0 -79 -1t-87.5 -5.5t-94 -13.5t-84.5 -26t-73.5 -41
t-48 -61.5t-19.5 -84.5zM279 1264v112h503v-112h-503z" />
    <glyph glyph-name="Abreve" unicode="&#x102;" horiz-adv-x="1261" 
d="M1085 0l-165 459h-580l-164 -459h-149l528 1440h152l528 -1440h-150zM633 1290h-4q-31 -118 -56 -186l-192 -522h496l-189 522q-11 30 -25 76.5t-22 77.5zM631 1534q-97 0 -166.5 58t-69.5 161v31h113v-27q0 -63 35.5 -95t87.5 -32t88.5 32t36.5 95v27h112v-31
q0 -103 -69 -161t-168 -58z" />
    <glyph glyph-name="abreve" unicode="&#x103;" horiz-adv-x="1064" 
d="M84 281q0 72 26.5 129t66 93.5t100.5 63.5t113.5 40t122.5 20t110 8.5t92 1.5h57v27q0 266 -256 266q-76 0 -148.5 -25t-107.5 -49l-35 -25l-65 107q6 5 16 13t46 28t75.5 35.5t101.5 28t127 12.5q187 0 286 -101.5t99 -294.5v-659h-133v113l4 86h-4q-2 -5 -5.5 -13
t-17.5 -31t-31 -44.5t-46.5 -47t-62.5 -44.5t-80.5 -31.5t-100.5 -12.5q-52 0 -102.5 12t-95 37t-78.5 60.5t-54 86t-20 110.5zM227 289q0 -78 60.5 -136.5t169.5 -58.5q94 0 168 59.5t110.5 145.5t36.5 178v45h-59q-46 0 -79 -1t-87.5 -5.5t-94 -13.5t-84.5 -26t-73.5 -41
t-48 -61.5t-19.5 -84.5zM528 1190q-97 0 -166 58t-69 161v31h113v-27q0 -63 35 -95t87 -32t88.5 32t36.5 95v27h113v-31q0 -103 -69.5 -161t-168.5 -58z" />
    <glyph glyph-name="Aogonek" unicode="&#x104;" horiz-adv-x="1261" 
d="M956 -231q0 67 40 124.5t91 98.5l-167 467h-580l-164 -459h-149l528 1440h152l528 -1440q-150 -117 -150 -203q0 -26 13 -46t31.5 -30t37.5 -16.5t32 -8.5l13 -1l-30 -115q-5 0 -13 1t-31.5 6t-45 12.5t-47.5 22t-44.5 33.5t-31.5 48.5t-13 65.5zM633 1290h-4
q-31 -118 -56 -186l-192 -522h496l-189 522q-11 30 -25 76.5t-22 77.5z" />
    <glyph glyph-name="aogonek" unicode="&#x105;" horiz-adv-x="1064" 
d="M84 281q0 356 631 356h57v27q0 266 -256 266q-76 0 -148.5 -25t-107.5 -49l-35 -25l-65 107q6 5 16 13t46 28t75.5 35.5t101.5 28t127 12.5q187 0 286 -101.5t99 -294.5v-659q-149 -116 -149 -203q0 -41 32 -66.5t64 -30.5l31 -5l-31 -115q-5 0 -13 1t-31.5 6t-44.5 12.5
t-47 22t-44.5 33.5t-31.5 48.5t-13 65.5q0 72 45.5 132t99.5 101v111l4 86h-4q-2 -5 -5.5 -13t-17.5 -31t-31 -44.5t-46.5 -47t-62.5 -44.5t-80.5 -31.5t-100.5 -12.5q-52 0 -102.5 12t-95 37t-78.5 60.5t-54 86t-20 110.5zM227 289q0 -78 60.5 -136.5t169.5 -58.5
q94 0 168 59.5t110.5 145.5t36.5 178v45h-59q-46 0 -79 -1t-87.5 -5.5t-94 -13.5t-84.5 -26t-73.5 -41t-48 -61.5t-19.5 -84.5z" />
    <glyph glyph-name="Cacute" unicode="&#x106;" horiz-adv-x="1490" 
d="M113 729q0 154 55.5 290.5t151 234t230 154t286.5 56.5q96 0 185 -19t147 -46.5t102 -55t64 -46.5l20 -19l-76 -104q-7 6 -20 17t-56.5 38.5t-91 48.5t-121 38t-149.5 17q-166 0 -299 -79.5t-207 -217t-74 -305.5q0 -171 74 -313.5t208.5 -227t301.5 -84.5q81 0 159.5 20
t131.5 48t94.5 56.5t61.5 48.5l20 20l82 -100q-8 -9 -23.5 -24t-68.5 -54t-112 -68.5t-153.5 -53.5t-193.5 -24q-209 0 -376.5 100.5t-260 273t-92.5 380.5zM756 1540l141 244h162l-176 -244h-127z" />
    <glyph glyph-name="cacute" unicode="&#x107;" horiz-adv-x="1124" 
d="M96 514q0 155 72 279.5t195.5 193t273.5 68.5q71 0 135.5 -15t106.5 -37t74 -44t47 -37l14 -15l-72 -104l-13.5 13.5t-38.5 30t-62.5 38t-83.5 30t-103 13.5q-171 0 -286 -116t-115 -298q0 -180 116.5 -297t288.5 -117q59 0 114.5 15t92.5 36.5t66.5 43t43.5 36.5l13 15
l63 -109q-6 -7 -17 -17.5t-49 -38.5t-81 -49.5t-112 -39t-142 -17.5q-152 0 -275 67.5t-194.5 191.5t-71.5 280zM535 1196l141 244h162l-176 -244h-127z" />
    <glyph glyph-name="Ccircumflex" unicode="&#x108;" horiz-adv-x="1490" 
d="M113 729q0 154 55.5 290.5t151 234t230 154t286.5 56.5q96 0 185 -19t147 -46.5t102 -55t64 -46.5l20 -19l-76 -104q-7 6 -20 17t-56.5 38.5t-91 48.5t-121 38t-149.5 17q-166 0 -299 -79.5t-207 -217t-74 -305.5q0 -171 74 -313.5t208.5 -227t301.5 -84.5q81 0 159.5 20
t131.5 48t94.5 56.5t61.5 48.5l20 20l82 -100q-8 -9 -23.5 -24t-68.5 -54t-112 -68.5t-153.5 -53.5t-193.5 -24q-209 0 -376.5 100.5t-260 273t-92.5 380.5zM575 1540l170 244h154l172 -244h-135l-111 166h-4l-110 -166h-136z" />
    <glyph glyph-name="ccircumflex" unicode="&#x109;" horiz-adv-x="1124" 
d="M96 514q0 155 72 279.5t195.5 193t273.5 68.5q71 0 135.5 -15t106.5 -37t74 -44t47 -37l14 -15l-72 -104l-13.5 13.5t-38.5 30t-62.5 38t-83.5 30t-103 13.5q-171 0 -286 -116t-115 -298q0 -180 116.5 -297t288.5 -117q59 0 114.5 15t92.5 36.5t66.5 43t43.5 36.5l13 15
l63 -109q-6 -7 -17 -17.5t-49 -38.5t-81 -49.5t-112 -39t-142 -17.5q-152 0 -275 67.5t-194.5 191.5t-71.5 280zM354 1196l170 244h154l172 -244h-135l-111 166h-4l-111 -166h-135z" />
    <glyph glyph-name="Cdotaccent" unicode="&#x10a;" horiz-adv-x="1490" 
d="M113 729q0 154 55.5 290.5t151 234t230 154t286.5 56.5q96 0 185 -19t147 -46.5t102 -55t64 -46.5l20 -19l-76 -104q-7 6 -20 17t-56.5 38.5t-91 48.5t-121 38t-149.5 17q-166 0 -299 -79.5t-207 -217t-74 -305.5q0 -171 74 -313.5t208.5 -227t301.5 -84.5q81 0 159.5 20
t131.5 48t94.5 56.5t61.5 48.5l20 20l82 -100q-8 -9 -23.5 -24t-68.5 -54t-112 -68.5t-153.5 -53.5t-193.5 -24q-209 0 -376.5 100.5t-260 273t-92.5 380.5zM756 1610v174h133v-174h-133z" />
    <glyph glyph-name="cdotaccent" unicode="&#x10b;" horiz-adv-x="1124" 
d="M96 514q0 155 72 279.5t195.5 193t273.5 68.5q71 0 135.5 -15t106.5 -37t74 -44t47 -37l14 -15l-72 -104l-13.5 13.5t-38.5 30t-62.5 38t-83.5 30t-103 13.5q-171 0 -286 -116t-115 -298q0 -180 116.5 -297t288.5 -117q59 0 114.5 15t92.5 36.5t66.5 43t43.5 36.5l13 15
l63 -109q-6 -7 -17 -17.5t-49 -38.5t-81 -49.5t-112 -39t-142 -17.5q-152 0 -275 67.5t-194.5 191.5t-71.5 280zM535 1266v174h133v-174h-133z" />
    <glyph glyph-name="Ccaron" unicode="&#x10c;" horiz-adv-x="1490" 
d="M113 729q0 154 55.5 290.5t151 234t230 154t286.5 56.5q96 0 185 -19t147 -46.5t102 -55t64 -46.5l20 -19l-76 -104q-7 6 -20 17t-56.5 38.5t-91 48.5t-121 38t-149.5 17q-166 0 -299 -79.5t-207 -217t-74 -305.5q0 -171 74 -313.5t208.5 -227t301.5 -84.5q81 0 159.5 20
t131.5 48t94.5 56.5t61.5 48.5l20 20l82 -100q-8 -9 -23.5 -24t-68.5 -54t-112 -68.5t-153.5 -53.5t-193.5 -24q-209 0 -376.5 100.5t-260 273t-92.5 380.5zM745 1540l-170 244h136l110 -164h4l111 164h135l-172 -244h-154z" />
    <glyph glyph-name="ccaron" unicode="&#x10d;" horiz-adv-x="1124" 
d="M96 514q0 155 72 279.5t195.5 193t273.5 68.5q71 0 135.5 -15t106.5 -37t74 -44t47 -37l14 -15l-72 -104l-13.5 13.5t-38.5 30t-62.5 38t-83.5 30t-103 13.5q-171 0 -286 -116t-115 -298q0 -180 116.5 -297t288.5 -117q59 0 114.5 15t92.5 36.5t66.5 43t43.5 36.5l13 15
l63 -109q-6 -7 -17 -17.5t-49 -38.5t-81 -49.5t-112 -39t-142 -17.5q-152 0 -275 67.5t-194.5 191.5t-71.5 280zM524 1196l-170 244h135l111 -164h4l111 164h135l-172 -244h-154z" />
    <glyph glyph-name="Dcaron" unicode="&#x10e;" horiz-adv-x="1515" 
d="M209 0v1440h465q216 0 378.5 -84t253.5 -247.5t91 -387.5q0 -339 -197 -530t-526 -191h-465zM350 127h309q271 0 430.5 155t159.5 439q0 282 -160.5 437t-429.5 155h-309v-1186zM625 1540l-170 244h135l110 -164h5l110 164h135l-172 -244h-153z" />
    <glyph glyph-name="dcaron" unicode="&#x10f;" horiz-adv-x="1267" 
d="M100 516q0 242 129.5 390.5t333.5 148.5q70 0 130.5 -20t96.5 -48.5t62 -57.5t36 -49l11 -20h4q-4 35 -4 78v502h139v-1440h-135v109l4 73h-4q-3 -8 -10.5 -22t-36.5 -50t-65.5 -63t-101 -49.5t-140.5 -22.5q-205 0 -327 149.5t-122 391.5zM244 516q0 -189 89.5 -302.5
t235.5 -113.5q67 0 125.5 24.5t106 73t75 130.5t27.5 188q0 80 -20.5 153t-60 132t-103.5 94t-144 35q-141 0 -236 -112.5t-95 -301.5zM1167 1440h133q13 -57 13 -101q0 -81 -47 -184h-115q39 95 39 166q0 54 -23 119z" />
    <glyph glyph-name="Dcroat" unicode="&#x110;" horiz-adv-x="1544" 
d="M119 662v122h123v656h463q330 0 526 -191t196 -528q0 -340 -196 -530.5t-526 -190.5h-463v662h-123zM383 127h307q271 0 430.5 155t159.5 439q0 282 -159.5 437t-430.5 155h-307v-529h342v-122h-342v-535z" />
    <glyph glyph-name="dcroat" unicode="&#x111;" horiz-adv-x="1206" 
d="M629 1159v105h270v176h139v-176h164v-105h-164v-1159h-135v109l4 73h-4q-3 -8 -10.5 -22t-36.5 -50t-65.5 -63t-101 -49.5t-140.5 -22.5q-205 0 -327 149.5t-122 391.5t129.5 390.5t333.5 148.5q70 0 130.5 -20t96.5 -48.5t62 -57.5t36 -49l11 -20h4q-4 35 -4 78v221
h-270zM244 516q0 -189 89.5 -302.5t235.5 -113.5q67 0 125.5 24.5t106 73t75 130.5t27.5 188q0 80 -20.5 153t-60 132t-103.5 94t-144 35q-141 0 -236 -112.5t-95 -301.5z" />
    <glyph glyph-name="Emacron" unicode="&#x112;" horiz-adv-x="1169" 
d="M209 0v1440h811v-127h-670v-525h547v-126h-547v-535h707v-127h-848zM387 1608v112h504v-112h-504z" />
    <glyph glyph-name="emacron" unicode="&#x113;" horiz-adv-x="1132" 
d="M96 514q0 124 40 227t109.5 171t161.5 105.5t197 37.5q137 0 236.5 -66t146.5 -172t47 -237l-4 -72h-790q3 -128 58.5 -222t144 -140t196.5 -46q53 0 104.5 13t87.5 31t64.5 36.5t42.5 31.5l14 13l64 -106q-6 -6 -17.5 -15.5t-50 -34.5t-80 -44t-105 -34.5t-128.5 -15.5
q-232 0 -385.5 151.5t-153.5 387.5zM246 623h647q-6 154 -88 234.5t-205 80.5q-134 0 -232 -82.5t-122 -232.5zM354 1264v112h504v-112h-504z" />
    <glyph glyph-name="Ebreve" unicode="&#x114;" horiz-adv-x="1169" 
d="M209 0v1440h811v-127h-670v-525h547v-126h-547v-535h707v-127h-848zM637 1534q-97 0 -166.5 58t-69.5 161v31h113v-27q0 -63 35.5 -95t87.5 -32t88.5 32t36.5 95v27h112v-31q0 -103 -69 -161t-168 -58z" />
    <glyph glyph-name="ebreve" unicode="&#x115;" horiz-adv-x="1132" 
d="M96 514q0 124 40 227t109.5 171t161.5 105.5t197 37.5q137 0 236.5 -66t146.5 -172t47 -237l-4 -72h-790q3 -128 58.5 -222t144 -140t196.5 -46q53 0 104.5 13t87.5 31t64.5 36.5t42.5 31.5l14 13l64 -106q-6 -6 -17.5 -15.5t-50 -34.5t-80 -44t-105 -34.5t-128.5 -15.5
q-232 0 -385.5 151.5t-153.5 387.5zM246 623h647q-6 154 -88 234.5t-205 80.5q-134 0 -232 -82.5t-122 -232.5zM604 1190q-97 0 -166 58t-69 161v31h112v-27q0 -63 35.5 -95t87.5 -32t88.5 32t36.5 95v27h113v-31q0 -103 -69.5 -161t-168.5 -58z" />
    <glyph glyph-name="Edotaccent" unicode="&#x116;" horiz-adv-x="1169" 
d="M209 0v1440h811v-127h-670v-525h547v-126h-547v-535h707v-127h-848zM571 1610v174h134v-174h-134z" />
    <glyph glyph-name="edotaccent" unicode="&#x117;" horiz-adv-x="1132" 
d="M96 514q0 124 40 227t109.5 171t161.5 105.5t197 37.5q137 0 236.5 -66t146.5 -172t47 -237l-4 -72h-790q3 -128 58.5 -222t144 -140t196.5 -46q53 0 104.5 13t87.5 31t64.5 36.5t42.5 31.5l14 13l64 -106q-6 -6 -17.5 -15.5t-50 -34.5t-80 -44t-105 -34.5t-128.5 -15.5
q-232 0 -385.5 151.5t-153.5 387.5zM246 623h647q-6 154 -88 234.5t-205 80.5q-134 0 -232 -82.5t-122 -232.5zM539 1266v174h133v-174h-133z" />
    <glyph glyph-name="Eogonek" unicode="&#x118;" horiz-adv-x="1169" 
d="M209 0v1440h811v-127h-670v-525h547v-126h-547v-535h707v-127q-150 -117 -150 -203q0 -26 13 -46t31.5 -30t37.5 -16.5t32 -8.5l13 -1l-30 -115q-5 0 -13 1t-31.5 6t-45 12.5t-47.5 22t-44.5 33.5t-31.5 48.5t-13 65.5q0 118 144 227v4h-713z" />
    <glyph glyph-name="eogonek" unicode="&#x119;" horiz-adv-x="1134" 
d="M96 514q0 124 40 227t109.5 171t161.5 105.5t197 37.5q137 0 236.5 -66t146.5 -172t47 -237l-4 -72h-790q3 -128 58.5 -222t144 -140t196.5 -46q53 0 104.5 13t87.5 31t64.5 36.5t42.5 31.5l14 13l64 -106q-23 -22 -81 -64t-101 -75t-79 -83t-36 -100q0 -26 13 -46
t31.5 -30t37.5 -16.5t32 -8.5l13 -1l-31 -115q-5 0 -13 1t-31.5 6t-44.5 12.5t-47 22t-44.5 33.5t-31.5 48.5t-13 65.5q0 106 110 208v5q-35 -7 -65 -7q-232 0 -385.5 151.5t-153.5 387.5zM246 623h647q-6 154 -88 234.5t-205 80.5q-134 0 -232 -82.5t-122 -232.5z" />
    <glyph glyph-name="Ecaron" unicode="&#x11a;" horiz-adv-x="1169" 
d="M209 0v1440h811v-127h-670v-525h547v-126h-547v-535h707v-127h-848zM561 1540l-170 244h135l111 -164h4l111 164h135l-172 -244h-154z" />
    <glyph glyph-name="ecaron" unicode="&#x11b;" horiz-adv-x="1132" 
d="M96 514q0 124 40 227t109.5 171t161.5 105.5t197 37.5q137 0 236.5 -66t146.5 -172t47 -237l-4 -72h-790q3 -128 58.5 -222t144 -140t196.5 -46q53 0 104.5 13t87.5 31t64.5 36.5t42.5 31.5l14 13l64 -106q-6 -6 -17.5 -15.5t-50 -34.5t-80 -44t-105 -34.5t-128.5 -15.5
q-232 0 -385.5 151.5t-153.5 387.5zM246 623h647q-6 154 -88 234.5t-205 80.5q-134 0 -232 -82.5t-122 -232.5zM528 1196l-170 244h136l110 -164h4l111 164h135l-172 -244h-154z" />
    <glyph glyph-name="Gcircumflex" unicode="&#x11c;" horiz-adv-x="1552" 
d="M113 721q0 154 55.5 291.5t151.5 236.5t230.5 157t287.5 58q94 0 181 -17.5t144.5 -42t101.5 -49t65 -41.5l20 -18l-76 -106q-7 6 -20 15.5t-56 34t-89.5 43.5t-119 34.5t-145.5 15.5q-170 0 -304.5 -81t-207 -220t-72.5 -309q0 -175 74 -316t204.5 -221t292.5 -80
q79 0 154.5 21.5t127 52.5t92 62.5t59.5 53.5l20 21v244h-246v127h381v-688h-131v109l2 61h-4q-7 -8 -20 -21t-58 -46.5t-95 -59.5t-130.5 -47t-165.5 -21q-194 0 -355.5 96.5t-255 268t-93.5 381.5zM567 1540l170 244h154l172 -244h-135l-111 166h-4l-111 -166h-135z" />
    <glyph glyph-name="gcircumflex" unicode="&#x11d;" horiz-adv-x="1191" 
d="M246 -233q14 -8 39 -20t98 -32t141 -20q161 0 261 80t100 243v95l4 73h-4q-95 -180 -326 -180q-206 0 -332.5 148t-126.5 381q0 234 121 377t326 143q76 0 139 -17.5t98.5 -43t60.5 -51t33 -43.5l9 -17h4q-2 12 -2 35v112h135v-1005q0 -95 -27.5 -172.5t-74 -129.5
t-110 -87t-134 -50.5t-148.5 -15.5q-176 0 -337 82zM582 131q64 0 116.5 21t96 66.5t68 126t24.5 190.5q0 393 -326 393q-150 0 -233.5 -103t-83.5 -288t92 -295.5t246 -110.5zM336 1196l170 244h153l172 -244h-135l-110 166h-4l-111 -166h-135z" />
    <glyph glyph-name="Gbreve" unicode="&#x11e;" horiz-adv-x="1552" 
d="M113 721q0 154 55.5 291.5t151.5 236.5t230.5 157t287.5 58q94 0 181 -17.5t144.5 -42t101.5 -49t65 -41.5l20 -18l-76 -106q-7 6 -20 15.5t-56 34t-89.5 43.5t-119 34.5t-145.5 15.5q-170 0 -304.5 -81t-207 -220t-72.5 -309q0 -175 74 -316t204.5 -221t292.5 -80
q79 0 154.5 21.5t127 52.5t92 62.5t59.5 53.5l20 21v244h-246v127h381v-688h-131v109l2 61h-4q-7 -8 -20 -21t-58 -46.5t-95 -59.5t-130.5 -47t-165.5 -21q-194 0 -355.5 96.5t-255 268t-93.5 381.5zM815 1534q-97 0 -166 58t-69 161v31h112v-27q0 -63 35.5 -95t87.5 -32
t88.5 32t36.5 95v27h113v-31q0 -103 -69.5 -161t-168.5 -58z" />
    <glyph glyph-name="gbreve" unicode="&#x11f;" horiz-adv-x="1191" 
d="M246 -233q14 -8 39 -20t98 -32t141 -20q161 0 261 80t100 243v95l4 73h-4q-95 -180 -326 -180q-206 0 -332.5 148t-126.5 381q0 234 121 377t326 143q76 0 139 -17.5t98.5 -43t60.5 -51t33 -43.5l9 -17h4q-2 12 -2 35v112h135v-1005q0 -95 -27.5 -172.5t-74 -129.5
t-110 -87t-134 -50.5t-148.5 -15.5q-176 0 -337 82zM582 131q64 0 116.5 21t96 66.5t68 126t24.5 190.5q0 393 -326 393q-150 0 -233.5 -103t-83.5 -288t92 -295.5t246 -110.5zM582 1190q-97 0 -166.5 58t-69.5 161v31h113v-27q0 -63 35.5 -95t87.5 -32t88.5 32t36.5 95v27
h112v-31q0 -103 -69 -161t-168 -58z" />
    <glyph glyph-name="Gdotaccent" unicode="&#x120;" horiz-adv-x="1552" 
d="M113 721q0 154 55.5 291.5t151.5 236.5t230.5 157t287.5 58q94 0 181 -17.5t144.5 -42t101.5 -49t65 -41.5l20 -18l-76 -106q-7 6 -20 15.5t-56 34t-89.5 43.5t-119 34.5t-145.5 15.5q-170 0 -304.5 -81t-207 -220t-72.5 -309q0 -175 74 -316t204.5 -221t292.5 -80
q79 0 154.5 21.5t127 52.5t92 62.5t59.5 53.5l20 21v244h-246v127h381v-688h-131v109l2 61h-4q-7 -8 -20 -21t-58 -46.5t-95 -59.5t-130.5 -47t-165.5 -21q-194 0 -355.5 96.5t-255 268t-93.5 381.5zM750 1610v174h133v-174h-133z" />
    <glyph glyph-name="gdotaccent" unicode="&#x121;" horiz-adv-x="1191" 
d="M246 -233q14 -8 39 -20t98 -32t141 -20q161 0 261 80t100 243v95l4 73h-4q-95 -180 -326 -180q-206 0 -332.5 148t-126.5 381q0 234 121 377t326 143q76 0 139 -17.5t98.5 -43t60.5 -51t33 -43.5l9 -17h4q-2 12 -2 35v112h135v-1005q0 -95 -27.5 -172.5t-74 -129.5
t-110 -87t-134 -50.5t-148.5 -15.5q-176 0 -337 82zM582 131q64 0 116.5 21t96 66.5t68 126t24.5 190.5q0 393 -326 393q-150 0 -233.5 -103t-83.5 -288t92 -295.5t246 -110.5zM516 1266v174h133v-174h-133z" />
    <glyph glyph-name="Gcommaaccent" unicode="&#x122;" horiz-adv-x="1552" 
d="M113 721q0 154 55.5 291.5t151.5 236.5t230.5 157t287.5 58q94 0 181 -17.5t144.5 -42t101.5 -49t65 -41.5l20 -18l-76 -106q-7 6 -20 15.5t-56 34t-89.5 43.5t-119 34.5t-145.5 15.5q-170 0 -304.5 -81t-207 -220t-72.5 -309q0 -175 74 -316t204.5 -221t292.5 -80
q79 0 154.5 21.5t127 52.5t92 62.5t59.5 53.5l20 21v244h-246v127h381v-688h-131v109l2 61h-4q-7 -8 -20 -21t-58 -46.5t-95 -59.5t-130.5 -47t-165.5 -21q-194 0 -355.5 96.5t-255 268t-93.5 381.5zM750 -129h133q12 -52 12 -100q0 -82 -47 -185h-115q39 95 39 166
q0 57 -22 119z" />
    <glyph glyph-name="gcommaaccent" unicode="&#x123;" horiz-adv-x="1191" 
d="M246 -233q14 -8 39 -20t98 -32t141 -20q161 0 261 80t100 243v95l4 73h-4q-95 -180 -326 -180q-206 0 -332.5 148t-126.5 381q0 234 121 377t326 143q76 0 139 -17.5t98.5 -43t60.5 -51t33 -43.5l9 -17h4q-2 12 -2 35v112h135v-1005q0 -95 -27.5 -172.5t-74 -129.5
t-110 -87t-134 -50.5t-148.5 -15.5q-176 0 -337 82zM582 131q64 0 116.5 21t96 66.5t68 126t24.5 190.5q0 393 -326 393q-150 0 -233.5 -103t-83.5 -288t92 -295.5t246 -110.5zM653 1159h-133q-12 49 -12 98q0 82 47 185h115q-39 -95 -39 -166q0 -58 22 -117z" />
    <glyph glyph-name="Hcircumflex" unicode="&#x124;" horiz-adv-x="1536" 
d="M209 0v1440h141v-656h836v656h141v-1440h-141v657h-836v-657h-141zM520 1540l170 244h154l172 -244h-135l-111 166h-4l-111 -166h-135z" />
    <glyph glyph-name="hcircumflex" unicode="&#x125;" horiz-adv-x="1214" 
d="M168 0v1440h139v-557l-4 -84h4q16 40 49 82t82.5 82.5t122.5 66t156 25.5q184 0 264 -100.5t80 -299.5v-655h-139v618q0 55 -4 95t-17.5 82t-37.5 68.5t-65.5 43.5t-99.5 17q-131 0 -235 -81.5t-139 -211.5q-17 -58 -17 -137v-494h-139zM-8 1540l170 244h153l172 -244
h-135l-110 166h-4l-111 -166h-135z" />
    <glyph glyph-name="Hbar" unicode="&#x126;" horiz-adv-x="1626" 
d="M256 0v1049h-135v110h135v281h143v-281h828v281h143v-281h133v-110h-133v-1049h-143v657h-828v-657h-143zM399 784h828v265h-828v-265z" />
    <glyph glyph-name="hbar" unicode="&#x127;" horiz-adv-x="1214" 
d="M12 1159v105h156v176h139v-176h273v-105h-273v-276l-4 -84h4q16 40 49 82t82.5 82.5t122.5 66t156 25.5q184 0 264 -100.5t80 -299.5v-655h-139v618q0 55 -4 95t-17.5 82t-37.5 68.5t-65.5 43.5t-99.5 17q-131 0 -235 -81.5t-139 -211.5q-17 -58 -17 -137v-494h-139v1159
h-156z" />
    <glyph glyph-name="Itilde" unicode="&#x128;" horiz-adv-x="559" 
d="M209 0v1440h141v-1440h-141zM-39 1546q0 240 189 240q38 0 70 -15t54 -37t42 -44t43.5 -37t48.5 -15q24 0 41 14t25 37.5t11.5 45.5t3.5 45h111q0 -240 -188 -240q-46 0 -85 23t-61 50t-52 50t-60 23q-24 0 -41 -14t-25 -37t-11 -44.5t-3 -44.5h-113z" />
    <glyph glyph-name="itilde" unicode="&#x129;" horiz-adv-x="475" 
d="M-80 1202q0 240 189 240q38 0 70 -15t54 -37t42 -44t43.5 -37t48.5 -15q24 0 41 14t25.5 37.5t12 45.5t3.5 45h110q0 -240 -188 -240q-38 0 -70 15t-54 36t-42 42.5t-43.5 36.5t-48.5 15q-31 0 -50.5 -25t-24.5 -53t-5 -61h-113zM168 0v1030h139v-1030h-139z" />
    <glyph glyph-name="Imacron" unicode="&#x12a;" horiz-adv-x="559" 
d="M209 0v1440h141v-1440h-141zM29 1608v112h503v-112h-503z" />
    <glyph glyph-name="imacron" unicode="&#x12b;" horiz-adv-x="475" 
d="M-12 1264v112h504v-112h-504zM168 0v1030h139v-1030h-139z" />
    <glyph glyph-name="Ibreve" unicode="&#x12c;" horiz-adv-x="559" 
d="M209 0v1440h141v-1440h-141zM281 1534q-97 0 -166.5 58t-69.5 161v31h113v-27q0 -63 35.5 -95t87.5 -32t88.5 32t36.5 95v27h112v-31q0 -103 -69 -161t-168 -58z" />
    <glyph glyph-name="ibreve" unicode="&#x12d;" horiz-adv-x="475" 
d="M238 1190q-97 0 -166.5 58t-69.5 161v31h113v-27q0 -63 35.5 -95t87.5 -32t88 32t36 95v27h113v-31q0 -103 -69 -161t-168 -58zM168 0v1030h139v-1030h-139z" />
    <glyph glyph-name="Iogonek" unicode="&#x12e;" horiz-adv-x="559" 
d="M88 -231q0 67 38 127.5t83 101.5v1442h141v-1440q-131 -112 -131 -203q0 -26 13 -46t31.5 -30t37.5 -16.5t32 -8.5l13 -1l-33 -115q-5 0 -13 1t-31.5 6t-44.5 12.5t-47 22t-44.5 33.5t-31.5 48.5t-13 65.5z" />
    <glyph glyph-name="iogonek" unicode="&#x12f;" horiz-adv-x="475" 
d="M45 -231q0 117 123 229v1032h139v-1030q-131 -112 -131 -203q0 -41 32 -66.5t64 -30.5l31 -5l-33 -115q-5 0 -13 1t-31.5 6t-44.5 12.5t-47 22t-44.5 33.5t-31.5 48.5t-13 65.5zM164 1266v174h145v-174h-145z" />
    <glyph glyph-name="Idotaccent" unicode="&#x130;" horiz-adv-x="559" 
d="M209 0v1440h141v-1440h-141zM215 1610v174h133v-174h-133z" />
    <glyph glyph-name="dotlessi" unicode="&#x131;" horiz-adv-x="475" 
d="M168 0v1030h139v-1030h-139z" />
    <glyph glyph-name="IJ" unicode="&#x132;" horiz-adv-x="1191" 
d="M557 -10v133q299 0 299 344v973h143v-973q0 -115 -27 -202.5t-69.5 -138.5t-103 -82.5t-118 -42.5t-124.5 -11zM209 0v1440h141v-1440h-141z" />
    <glyph glyph-name="ij" unicode="&#x133;" horiz-adv-x="950" 
d="M164 1266v174h145v-174h-145zM168 0v1030h139v-1030h-139zM641 1266v174h143v-174h-143zM643 1030h139v-1069q0 -97 -27 -170.5t-65 -112.5t-91 -63t-93 -30.5t-82 -6.5q-16 0 -31.5 1.5t-22.5 2.5l-8 2v121q19 -2 46 -2q29 0 55.5 4.5t61 21t59 43.5t42 77.5t17.5 117.5
v1063z" />
    <glyph glyph-name="Jcircumflex" unicode="&#x134;" horiz-adv-x="1073" 
d="M72 403v58h141v-53q0 -80 22.5 -140t61 -94.5t84 -51t96.5 -16.5q40 0 76.5 9t70.5 31.5t59.5 55.5t40.5 84.5t15 116.5v910h-352v127h494v-1037q0 -112 -35 -197.5t-94 -134t-129 -72.5t-148 -24q-61 0 -117.5 14.5t-109 47.5t-91.5 81.5t-62 121.5t-23 163zM385 1540
l170 244h154l172 -244h-136l-110 166h-4l-111 -166h-135z" />
    <glyph glyph-name="jcircumflex" unicode="&#x135;" horiz-adv-x="475" 
d="M168 1030h139v-1069q0 -97 -27 -170.5t-65 -112.5t-91 -63t-93 -30.5t-82 -6.5q-16 0 -31.5 1.5t-23.5 2.5l-7 2v121q18 -2 45 -2q29 0 56 4.5t61.5 21t59 43.5t42 77.5t17.5 117.5v1063zM-14 1196l172 244h147l172 -244h-133l-111 166h-4l-110 -166h-133z" />
    <glyph glyph-name="Kcommaaccent" unicode="&#x136;" horiz-adv-x="1230" 
d="M209 0v1440h141v-625h244l387 625h162l-430 -680v-4l458 -756h-165l-412 688h-244v-688h-141zM567 -129h133q13 -57 13 -100q0 -82 -47 -185h-115q39 95 39 166q0 54 -23 119z" />
    <glyph glyph-name="kcommaaccent" unicode="&#x137;" horiz-adv-x="1028" 
d="M168 0v1440h139v-803h164l309 393h168l-358 -448v-4l393 -578h-166l-344 516h-166v-516h-139zM467 -129h133q12 -52 12 -100q0 -82 -47 -185h-114q38 93 38 166q0 57 -22 119z" />
    <glyph glyph-name="kgreenlandic" unicode="&#x138;" horiz-adv-x="1032" 
d="M168 0v1030h139v-422h162l326 422h170l-375 -477v-4l375 -549h-172l-322 487h-164v-487h-139z" />
    <glyph glyph-name="Lacute" unicode="&#x139;" horiz-adv-x="1060" 
d="M209 0v1440h141v-1313h668v-127h-809zM213 1540l141 244h162l-176 -244h-127z" />
    <glyph glyph-name="lacute" unicode="&#x13a;" horiz-adv-x="505" 
d="M158 244v1196h139v-1166q0 -91 32.5 -123t82.5 -32l34 2v-125q-24 -4 -51 -4q-31 0 -58.5 4.5t-61.5 20t-58.5 41.5t-41.5 74t-17 112zM164 1540l141 244h162l-176 -244h-127z" />
    <glyph glyph-name="Lcommaaccent" unicode="&#x13b;" horiz-adv-x="1060" 
d="M209 0v1440h141v-1313h668v-127h-809zM557 -129h133q12 -52 12 -100q0 -82 -47 -185h-114q39 95 39 166q0 54 -23 119z" />
    <glyph glyph-name="lcommaaccent" unicode="&#x13c;" horiz-adv-x="505" 
d="M158 244v1196h139v-1166q0 -91 32.5 -123t82.5 -32l34 2v-125q-24 -4 -51 -4q-31 0 -58.5 4.5t-61.5 20t-58.5 41.5t-41.5 74t-17 112zM229 -129h133q13 -57 13 -100q0 -82 -47 -185h-115q39 95 39 166q0 54 -23 119z" />
    <glyph glyph-name="Lcaron" unicode="&#x13d;" horiz-adv-x="1060" 
d="M209 0v1440h141v-1313h668v-127h-809zM539 1440h133q12 -52 12 -101q0 -81 -47 -184h-115q39 95 39 166q0 57 -22 119z" />
    <glyph glyph-name="lcaron" unicode="&#x13e;" horiz-adv-x="567" 
d="M158 244v1196h139v-1166q0 -91 32.5 -123t82.5 -32l34 2v-125q-24 -4 -51 -4q-31 0 -58.5 4.5t-61.5 20t-58.5 41.5t-41.5 74t-17 112zM426 1440h133q12 -52 12 -101q0 -81 -47 -184h-114q39 95 39 166q0 54 -23 119z" />
    <glyph glyph-name="Ldot" unicode="&#x13f;" horiz-adv-x="1060" 
d="M209 0v1440h141v-1313h668v-127h-809zM610 680v164h158v-164h-158z" />
    <glyph glyph-name="ldot" unicode="&#x140;" horiz-adv-x="612" 
d="M158 244v1196h139v-1166q0 -91 32.5 -123t82.5 -32l34 2v-125q-24 -4 -51 -4q-31 0 -58.5 4.5t-61.5 20t-58.5 41.5t-41.5 74t-17 112zM436 680v164h158v-164h-158z" />
    <glyph glyph-name="Lslash" unicode="&#x141;" horiz-adv-x="1114" 
d="M133 618v144l129 74v604h141v-522l230 133v-148l-230 -131v-645h668v-127h-809v692z" />
    <glyph glyph-name="lslash" unicode="&#x142;" horiz-adv-x="630" 
d="M74 627v143l168 96v574h139v-492l178 103v-148l-178 -102v-527q0 -91 32.5 -123t82.5 -32l34 2v-125q-24 -4 -51 -4q-31 0 -58.5 4.5t-61.5 20t-58.5 41.5t-41.5 74t-17 112v477z" />
    <glyph glyph-name="Nacute" unicode="&#x143;" horiz-adv-x="1542" 
d="M209 0v1440h137l735 -1037q22 -32 51.5 -80.5t48.5 -80.5l19 -33h4q-12 118 -12 194v1037h141v-1440h-137l-735 1036q-22 32 -51.5 81t-48.5 81l-19 33h-4q12 -119 12 -195v-1036h-141zM705 1540l141 244h162l-177 -244h-126z" />
    <glyph glyph-name="nacute" unicode="&#x144;" horiz-adv-x="1214" 
d="M168 0v1030h137v-153l-4 -82h4q12 31 33.5 63.5t57.5 68.5t80.5 64t107.5 46t133 18q184 0 264 -100.5t80 -299.5v-655h-139v618q0 55 -4 95t-17.5 82t-37.5 68.5t-65.5 43.5t-99.5 17q-131 0 -235 -81.5t-139 -209.5q-17 -61 -17 -139v-494h-139zM569 1196l142 244h161
l-176 -244h-127z" />
    <glyph glyph-name="Ncommaaccent" unicode="&#x145;" horiz-adv-x="1542" 
d="M209 0v1440h137l735 -1037q22 -32 51.5 -80.5t48.5 -80.5l19 -33h4q-12 118 -12 194v1037h141v-1440h-137l-735 1036q-22 32 -51.5 81t-48.5 81l-19 33h-4q12 -119 12 -195v-1036h-141zM702 -129h134q12 -52 12 -100q0 -82 -47 -185h-115q39 95 39 166q0 54 -23 119z" />
    <glyph glyph-name="ncommaaccent" unicode="&#x146;" horiz-adv-x="1214" 
d="M168 0v1030h137v-153l-4 -82h4q12 31 33.5 63.5t57.5 68.5t80.5 64t107.5 46t133 18q184 0 264 -100.5t80 -299.5v-655h-139v618q0 55 -4 95t-17.5 82t-37.5 68.5t-65.5 43.5t-99.5 17q-131 0 -235 -81.5t-139 -209.5q-17 -61 -17 -139v-494h-139zM545 -129h133
q12 -52 12 -100q0 -82 -47 -185h-115q39 95 39 166q0 57 -22 119z" />
    <glyph glyph-name="Ncaron" unicode="&#x147;" horiz-adv-x="1542" 
d="M209 0v1440h137l735 -1037q22 -32 51.5 -80.5t48.5 -80.5l19 -33h4q-12 118 -12 194v1037h141v-1440h-137l-735 1036q-22 32 -51.5 81t-48.5 81l-19 33h-4q12 -119 12 -195v-1036h-141zM694 1540l-170 244h135l111 -164h4l111 164h135l-172 -244h-154z" />
    <glyph glyph-name="ncaron" unicode="&#x148;" horiz-adv-x="1214" 
d="M168 0v1030h137v-153l-4 -82h4q12 31 33.5 63.5t57.5 68.5t80.5 64t107.5 46t133 18q184 0 264 -100.5t80 -299.5v-655h-139v618q0 55 -4 95t-17.5 82t-37.5 68.5t-65.5 43.5t-99.5 17q-131 0 -235 -81.5t-139 -209.5q-17 -61 -17 -139v-494h-139zM557 1196l-170 244h135
l111 -164h4l111 164h135l-172 -244h-154z" />
    <glyph glyph-name="napostrophe" unicode="&#x149;" horiz-adv-x="1214" 
d="M168 0v1030h137v-153l-4 -82h4q12 31 33.5 63.5t57.5 68.5t80.5 64t107.5 46t133 18q184 0 264 -100.5t80 -299.5v-655h-139v618q0 55 -4 95t-17.5 82t-37.5 68.5t-65.5 43.5t-99.5 17q-131 0 -235 -81.5t-139 -209.5q-17 -61 -17 -139v-494h-139zM39 1440h133
q12 -52 12 -101q0 -81 -47 -184h-114q38 93 38 166q0 57 -22 119z" />
    <glyph glyph-name="Eng" unicode="&#x14a;" horiz-adv-x="1542" 
d="M209 0v1440h137l735 -1037q22 -32 51.5 -80.5t48.5 -80.5l19 -33h4q-12 118 -12 194v1037h141v-1415q0 -98 -25 -176.5t-66 -127.5t-97.5 -81.5t-115 -46t-122.5 -13.5v133q50 0 96.5 15.5t89 48.5t69 93t28.5 140l-729 1026q-22 32 -51.5 81t-48.5 81l-19 33h-4
q12 -119 12 -195v-1036h-141z" />
    <glyph glyph-name="eng" unicode="&#x14b;" horiz-adv-x="1214" 
d="M168 0v1030h137v-162l-4 -73h4q12 31 33.5 63.5t57.5 68.5t80.5 64t107.5 46t133 18q184 0 264 -100.5t80 -299.5v-702q0 -97 -27 -170.5t-65 -112.5t-90.5 -63t-93.5 -30.5t-83 -6.5q-16 0 -31 1.5t-21 2.5l-7 2v121q18 -2 45 -2q29 0 55.5 4.5t61 21t59 43.5t41.5 77.5
t17 117.5v659q0 55 -4 95t-17.5 82t-37.5 68.5t-65.5 43.5t-99.5 17q-131 0 -235 -81.5t-139 -209.5q-17 -61 -17 -139v-494h-139z" />
    <glyph glyph-name="Omacron" unicode="&#x14c;" horiz-adv-x="1687" 
d="M111 729q0 152 57.5 289t155.5 234.5t233.5 154.5t286.5 57t286.5 -57t233.5 -154.5t155.5 -234.5t57.5 -289q0 -155 -57.5 -295t-155.5 -240.5t-234 -159.5t-286 -59t-286 59t-234 159.5t-155.5 240.5t-57.5 295zM258 729q0 -130 46 -245.5t124.5 -198.5t187 -131
t228.5 -48t228 48.5t186.5 131t125 198t46.5 245.5q0 169 -78.5 308t-213 217.5t-294.5 78.5q-121 0 -229 -46.5t-186.5 -126t-124.5 -192t-46 -239.5zM592 1608v112h504v-112h-504z" />
    <glyph glyph-name="omacron" unicode="&#x14d;" horiz-adv-x="1273" 
d="M92 520q0 150 73 273t198 192.5t274 69.5t274 -69.5t198 -192.5t73 -273q0 -114 -43 -216t-116.5 -173.5t-174 -113.5t-211.5 -42t-211.5 42t-174 113.5t-116.5 173.5t-43 216zM236 520q0 -179 117 -299.5t284 -120.5t284 120.5t117 299.5q0 173 -117 290.5t-284 117.5
t-284 -117.5t-117 -290.5zM385 1264v112h504v-112h-504z" />
    <glyph glyph-name="Obreve" unicode="&#x14e;" horiz-adv-x="1687" 
d="M111 729q0 152 57.5 289t155.5 234.5t233.5 154.5t286.5 57t286.5 -57t233.5 -154.5t155.5 -234.5t57.5 -289q0 -155 -57.5 -295t-155.5 -240.5t-234 -159.5t-286 -59t-286 59t-234 159.5t-155.5 240.5t-57.5 295zM258 729q0 -130 46 -245.5t124.5 -198.5t187 -131
t228.5 -48t228 48.5t186.5 131t125 198t46.5 245.5q0 169 -78.5 308t-213 217.5t-294.5 78.5q-121 0 -229 -46.5t-186.5 -126t-124.5 -192t-46 -239.5zM842 1534q-97 0 -166.5 58t-69.5 161v31h113v-27q0 -63 35.5 -95t87.5 -32t88.5 32t36.5 95v27h112v-31q0 -103 -69 -161
t-168 -58z" />
    <glyph glyph-name="obreve" unicode="&#x14f;" horiz-adv-x="1273" 
d="M92 520q0 150 73 273t198 192.5t274 69.5t274 -69.5t198 -192.5t73 -273q0 -114 -43 -216t-116.5 -173.5t-174 -113.5t-211.5 -42t-211.5 42t-174 113.5t-116.5 173.5t-43 216zM236 520q0 -179 117 -299.5t284 -120.5t284 120.5t117 299.5q0 173 -117 290.5t-284 117.5
t-284 -117.5t-117 -290.5zM637 1190q-97 0 -166.5 58t-69.5 161v31h113v-27q0 -63 35.5 -95t87.5 -32t88.5 32t36.5 95v27h112v-31q0 -103 -69 -161t-168 -58z" />
    <glyph glyph-name="Ohungarumlaut" unicode="&#x150;" horiz-adv-x="1687" 
d="M111 729q0 152 57.5 289t155.5 234.5t233.5 154.5t286.5 57t286.5 -57t233.5 -154.5t155.5 -234.5t57.5 -289q0 -155 -57.5 -295t-155.5 -240.5t-234 -159.5t-286 -59t-286 59t-234 159.5t-155.5 240.5t-57.5 295zM258 729q0 -130 46 -245.5t124.5 -198.5t187 -131
t228.5 -48t228 48.5t186.5 131t125 198t46.5 245.5q0 169 -78.5 308t-213 217.5t-294.5 78.5q-121 0 -229 -46.5t-186.5 -126t-124.5 -192t-46 -239.5zM887 1540l143 244h158l-178 -244h-123zM612 1540l133 244h140l-140 -244h-133z" />
    <glyph glyph-name="ohungarumlaut" unicode="&#x151;" horiz-adv-x="1273" 
d="M92 520q0 150 73 273t198 192.5t274 69.5t274 -69.5t198 -192.5t73 -273q0 -114 -43 -216t-116.5 -173.5t-174 -113.5t-211.5 -42t-211.5 42t-174 113.5t-116.5 173.5t-43 216zM236 520q0 -179 117 -299.5t284 -120.5t284 120.5t117 299.5q0 173 -117 290.5t-284 117.5
t-284 -117.5t-117 -290.5zM680 1196l143 244h158l-178 -244h-123zM406 1196l133 244h139l-139 -244h-133z" />
    <glyph glyph-name="OE" unicode="&#x152;" horiz-adv-x="1951" 
d="M113 721q0 153 55 289.5t151 235.5t233 156.5t294 57.5q44 0 128.5 -10t115.5 -10h710v-127h-667v-525h544v-126h-544v-535h704v-127h-745q-29 0 -115 -10t-131 -10q-157 0 -294 57.5t-233 156t-151 235.5t-55 292zM260 721q0 -129 43 -241.5t118.5 -194.5t185.5 -129
t239 -47q35 0 70.5 3.5t53.5 7.5l19 3v1192q-65 16 -143 16q-129 0 -239 -47t-185.5 -128.5t-118.5 -194t-43 -240.5z" />
    <glyph glyph-name="oe" unicode="&#x153;" horiz-adv-x="2074" 
d="M94 512q0 160 74.5 285t197 191.5t269.5 66.5q154 0 276 -74t189 -203h4q60 132 175.5 204.5t264.5 72.5q138 0 237.5 -66t147 -172t47.5 -237l-4 -72h-790q9 -194 122 -301t277 -107q53 0 104 13t87 31t64 36.5t42 31.5l14 13l66 -106q-6 -6 -17.5 -15.5t-50 -34.5
t-80 -44t-106 -34.5t-129.5 -15.5q-159 0 -282 75t-187 206h-4q-65 -131 -188 -206t-279 -75q-147 0 -269.5 65t-197 189.5t-74.5 282.5zM1188 623h645q-6 154 -87.5 234.5t-203.5 80.5q-134 0 -232 -82.5t-122 -232.5zM238 512q0 -182 115.5 -297t283.5 -115
q167 0 283 116.5t116 303.5q0 182 -117 295t-282 113q-168 0 -283.5 -116t-115.5 -300z" />
    <glyph glyph-name="Racute" unicode="&#x154;" horiz-adv-x="1286" 
d="M209 0v1440h426q181 0 270 -39q102 -44 159.5 -142.5t57.5 -228.5q0 -145 -74.5 -250t-197.5 -139v-4q14 -18 37 -57l313 -580h-162l-325 606h-363v-606h-141zM350 733h342q131 0 208 79t77 214q0 182 -131 252q-65 35 -205 35h-291v-580zM553 1540l141 244h162
l-176 -244h-127z" />
    <glyph glyph-name="racute" unicode="&#x155;" horiz-adv-x="729" 
d="M168 0v1030h137v-182l-4 -82h4q38 122 123.5 198t202.5 76l55 -6v-137q-24 4 -51 4q-105 0 -184.5 -74t-114.5 -192q-29 -96 -29 -201v-434h-139zM371 1196l141 244h162l-176 -244h-127z" />
    <glyph glyph-name="Rcommaaccent" unicode="&#x156;" horiz-adv-x="1286" 
d="M209 0v1440h426q181 0 270 -39q102 -44 159.5 -142.5t57.5 -228.5q0 -145 -74.5 -250t-197.5 -139v-4q14 -18 37 -57l313 -580h-162l-325 606h-363v-606h-141zM350 733h342q131 0 208 79t77 214q0 182 -131 252q-65 35 -205 35h-291v-580zM592 -129h133q12 -52 12 -100
q0 -82 -47 -185h-115q39 95 39 166q0 57 -22 119z" />
    <glyph glyph-name="rcommaaccent" unicode="&#x157;" horiz-adv-x="729" 
d="M168 0v1030h137v-182l-4 -82h4q38 122 123.5 198t202.5 76l55 -6v-137q-24 4 -51 4q-105 0 -184.5 -74t-114.5 -192q-29 -96 -29 -201v-434h-139zM172 -129h133q12 -52 12 -100q0 -82 -47 -185h-114q39 95 39 166q0 54 -23 119z" />
    <glyph glyph-name="Rcaron" unicode="&#x158;" horiz-adv-x="1286" 
d="M209 0v1440h426q181 0 270 -39q102 -44 159.5 -142.5t57.5 -228.5q0 -145 -74.5 -250t-197.5 -139v-4q14 -18 37 -57l313 -580h-162l-325 606h-363v-606h-141zM350 733h342q131 0 208 79t77 214q0 182 -131 252q-65 35 -205 35h-291v-580zM541 1540l-170 244h135
l110 -164h5l110 164h135l-172 -244h-153z" />
    <glyph glyph-name="rcaron" unicode="&#x159;" horiz-adv-x="729" 
d="M168 0v1030h137v-182l-4 -82h4q38 122 123.5 198t202.5 76l55 -6v-137q-24 4 -51 4q-105 0 -184.5 -74t-114.5 -192q-29 -96 -29 -201v-434h-139zM362 1196l-169 244h135l110 -164h4l111 164h135l-172 -244h-154z" />
    <glyph glyph-name="Sacute" unicode="&#x15a;" horiz-adv-x="1101" 
d="M102 160l84 108q6 -6 17.5 -17t49.5 -38t79 -47.5t104 -37.5t127 -17q122 0 204.5 67.5t82.5 181.5q0 58 -24.5 105t-66 80.5t-95.5 62t-114 54t-119.5 52t-113.5 60t-95.5 74.5t-66 99.5t-24.5 129.5q0 159 127 273t322 114q70 0 135.5 -14.5t109 -35t76.5 -40.5t49 -34
l15 -15l-70 -119q-5 5 -15 13.5t-42 29.5t-66 37t-86.5 29.5t-105.5 13.5q-133 0 -218.5 -74.5t-85.5 -173.5q0 -55 24.5 -99t66 -75t95.5 -58t114 -52t119.5 -51t113.5 -61t95.5 -78t66 -104.5t24.5 -137.5q0 -166 -119.5 -278t-316.5 -112q-83 0 -160.5 19t-129 46
t-91 54.5t-58.5 46.5zM489 1540l142 244h162l-177 -244h-127z" />
    <glyph glyph-name="sacute" unicode="&#x15b;" horiz-adv-x="907" 
d="M84 125l76 100l13.5 -13.5t38.5 -30t63.5 -38t85.5 -30t106 -13.5q88 0 147.5 43t59.5 121q0 40 -24 72.5t-63 54t-88.5 44t-102 41t-102 46t-88.5 59t-63 80.5t-24 109q0 132 102.5 208.5t249.5 76.5q61 0 116 -11.5t90 -28t61.5 -33.5t37.5 -28l12 -12l-63 -106
q-4 4 -10.5 10t-31 22.5t-52 29t-72 22.5t-92.5 10q-86 0 -145.5 -39.5t-59.5 -120.5q0 -46 30.5 -81.5t79.5 -59.5t108.5 -46t118.5 -49t108 -60.5t79.5 -87t30.5 -122.5q0 -126 -98.5 -207.5t-253.5 -81.5q-70 0 -135 15.5t-107.5 37.5t-75.5 44t-48 38zM397 1196l142 244
h161l-176 -244h-127z" />
    <glyph glyph-name="Scircumflex" unicode="&#x15c;" horiz-adv-x="1101" 
d="M102 160l84 108q6 -6 17.5 -17t49.5 -38t79 -47.5t104 -37.5t127 -17q122 0 204.5 67.5t82.5 181.5q0 58 -24.5 105t-66 80.5t-95.5 62t-114 54t-119.5 52t-113.5 60t-95.5 74.5t-66 99.5t-24.5 129.5q0 159 127 273t322 114q70 0 135.5 -14.5t109 -35t76.5 -40.5t49 -34
l15 -15l-70 -119q-5 5 -15 13.5t-42 29.5t-66 37t-86.5 29.5t-105.5 13.5q-133 0 -218.5 -74.5t-85.5 -173.5q0 -55 24.5 -99t66 -75t95.5 -58t114 -52t119.5 -51t113.5 -61t95.5 -78t66 -104.5t24.5 -137.5q0 -166 -119.5 -278t-316.5 -112q-83 0 -160.5 19t-129 46
t-91 54.5t-58.5 46.5zM309 1540l170 244h154l172 -244h-135l-111 166h-4l-111 -166h-135z" />
    <glyph glyph-name="scircumflex" unicode="&#x15d;" horiz-adv-x="907" 
d="M84 125l76 100l13.5 -13.5t38.5 -30t63.5 -38t85.5 -30t106 -13.5q88 0 147.5 43t59.5 121q0 40 -24 72.5t-63 54t-88.5 44t-102 41t-102 46t-88.5 59t-63 80.5t-24 109q0 132 102.5 208.5t249.5 76.5q61 0 116 -11.5t90 -28t61.5 -33.5t37.5 -28l12 -12l-63 -106
q-4 4 -10.5 10t-31 22.5t-52 29t-72 22.5t-92.5 10q-86 0 -145.5 -39.5t-59.5 -120.5q0 -46 30.5 -81.5t79.5 -59.5t108.5 -46t118.5 -49t108 -60.5t79.5 -87t30.5 -122.5q0 -126 -98.5 -207.5t-253.5 -81.5q-70 0 -135 15.5t-107.5 37.5t-75.5 44t-48 38zM219 1196l170 244
h154l172 -244h-135l-111 166h-4l-111 -166h-135z" />
    <glyph glyph-name="Scedilla" unicode="&#x15e;" horiz-adv-x="1101" 
d="M102 160l84 108q6 -6 17.5 -17t49.5 -38t79 -47.5t104 -37.5t127 -17q122 0 204.5 67.5t82.5 181.5q0 58 -24.5 105t-66 80.5t-95.5 62t-114 54t-119.5 52t-113.5 60t-95.5 74.5t-66 99.5t-24.5 129.5q0 159 127 273t322 114q70 0 135.5 -14.5t109 -35t76.5 -40.5t49 -34
l15 -15l-70 -119q-5 5 -15 13.5t-42 29.5t-66 37t-86.5 29.5t-105.5 13.5q-133 0 -218.5 -74.5t-85.5 -173.5q0 -55 24.5 -99t66 -75t95.5 -58t114 -52t119.5 -51t113.5 -61t95.5 -78t66 -104.5t24.5 -137.5q0 -157 -107 -266.5t-288 -121.5l-16 -90q64 -9 103.5 -47
t39.5 -98q0 -83 -56.5 -122.5t-140.5 -39.5q-27 0 -52.5 2.5t-37.5 5.5l-12 2v99q39 -13 86 -13q104 0 104 70q0 33 -31 51.5t-85 18.5l-31 -2l37 163q-73 6 -142 26.5t-115 46.5t-81 51t-52 42z" />
    <glyph glyph-name="scedilla" unicode="&#x15f;" horiz-adv-x="907" 
d="M84 125l76 100l13.5 -13.5t38.5 -30t63.5 -38t85.5 -30t106 -13.5q88 0 147.5 43t59.5 121q0 40 -24 72.5t-63 54t-88.5 44t-102 41t-102 46t-88.5 59t-63 80.5t-24 109q0 132 102.5 208.5t249.5 76.5q61 0 116 -11.5t90 -28t61.5 -33.5t37.5 -28l12 -12l-63 -106
q-4 4 -10.5 10t-31 22.5t-52 29t-72 22.5t-92.5 10q-86 0 -145.5 -39.5t-59.5 -120.5q0 -46 30.5 -81.5t79.5 -59.5t108.5 -46t118.5 -49t108 -60.5t79.5 -87t30.5 -122.5q0 -118 -87.5 -198t-227.5 -89l-17 -90q64 -9 104 -47t40 -98q0 -83 -56.5 -122.5t-140.5 -39.5
q-27 0 -52.5 2.5t-37.5 5.5l-12 2v99q39 -13 86 -13q104 0 104 70q0 33 -31 51.5t-86 18.5l-30 -2l37 163q-60 6 -116 23t-92.5 38t-64.5 40.5t-41 33.5z" />
    <glyph glyph-name="Scaron" unicode="&#x160;" horiz-adv-x="1101" 
d="M102 160l84 108q6 -6 17.5 -17t49.5 -38t79 -47.5t104 -37.5t127 -17q122 0 204.5 67.5t82.5 181.5q0 58 -24.5 105t-66 80.5t-95.5 62t-114 54t-119.5 52t-113.5 60t-95.5 74.5t-66 99.5t-24.5 129.5q0 159 127 273t322 114q70 0 135.5 -14.5t109 -35t76.5 -40.5t49 -34
l15 -15l-70 -119q-5 5 -15 13.5t-42 29.5t-66 37t-86.5 29.5t-105.5 13.5q-133 0 -218.5 -74.5t-85.5 -173.5q0 -55 24.5 -99t66 -75t95.5 -58t114 -52t119.5 -51t113.5 -61t95.5 -78t66 -104.5t24.5 -137.5q0 -166 -119.5 -278t-316.5 -112q-83 0 -160.5 19t-129 46
t-91 54.5t-58.5 46.5zM479 1540l-170 244h135l111 -164h4l111 164h135l-172 -244h-154z" />
    <glyph glyph-name="scaron" unicode="&#x161;" horiz-adv-x="907" 
d="M84 125l76 100l13.5 -13.5t38.5 -30t63.5 -38t85.5 -30t106 -13.5q88 0 147.5 43t59.5 121q0 40 -24 72.5t-63 54t-88.5 44t-102 41t-102 46t-88.5 59t-63 80.5t-24 109q0 132 102.5 208.5t249.5 76.5q61 0 116 -11.5t90 -28t61.5 -33.5t37.5 -28l12 -12l-63 -106
q-4 4 -10.5 10t-31 22.5t-52 29t-72 22.5t-92.5 10q-86 0 -145.5 -39.5t-59.5 -120.5q0 -46 30.5 -81.5t79.5 -59.5t108.5 -46t118.5 -49t108 -60.5t79.5 -87t30.5 -122.5q0 -126 -98.5 -207.5t-253.5 -81.5q-70 0 -135 15.5t-107.5 37.5t-75.5 44t-48 38zM389 1196
l-170 244h135l111 -164h4l111 164h135l-172 -244h-154z" />
    <glyph glyph-name="Tcommaaccent" unicode="&#x162;" horiz-adv-x="1204" 
d="M532 0v1313h-518v127h1176v-127h-516v-1313h-29l-20 -113q64 -9 103.5 -47t39.5 -98q0 -83 -56.5 -122.5t-140.5 -39.5q-27 0 -52.5 2.5t-37.5 5.5l-12 2v99q39 -13 86 -13q104 0 104 70q0 33 -31 51.5t-85 18.5l-31 -2l43 186h-23z" />
    <glyph glyph-name="tcommaaccent" unicode="&#x163;" horiz-adv-x="688" 
d="M209 375v526h-135v117h137v297h137v-297h258v-117h-258v-512q0 -58 11.5 -104t31.5 -74.5t43 -48t51.5 -29t50 -13t44.5 -3.5l47 4v-125q-23 -4 -60 -4q-49 0 -114 12l-21 -117q64 -9 103.5 -47t39.5 -98q0 -83 -56 -122.5t-140 -39.5q-27 0 -53 2.5t-38 5.5l-12 2v99
q39 -13 86 -13q105 0 105 70q0 33 -31 51.5t-86 18.5l-31 -2l52 223q-162 89 -162 338z" />
    <glyph glyph-name="Tcaron" unicode="&#x164;" horiz-adv-x="1204" 
d="M532 0v1313h-518v127h1176v-127h-516v-1313h-142zM524 1540l-170 244h135l111 -164h4l111 164h135l-172 -244h-154z" />
    <glyph glyph-name="tcaron" unicode="&#x165;" horiz-adv-x="686" 
d="M207 375v526h-135v117h137v297h137v-297h258v-117h-258v-512q0 -58 11.5 -104t31.5 -74.5t43 -48t51.5 -29t50 -13t44.5 -3.5l47 4v-125q-23 -4 -60 -4q-43 0 -83.5 6.5t-93 30t-90.5 62.5t-64.5 112.5t-26.5 171.5zM483 1440h133q13 -57 13 -101q0 -79 -47 -182h-115
q39 95 39 164q0 54 -23 119z" />
    <glyph glyph-name="Tbar" unicode="&#x166;" horiz-adv-x="1251" 
d="M223 664v116h332v533h-518v127h1175v-127h-516v-533h340v-116h-340v-664h-141v664h-332z" />
    <glyph glyph-name="tbar" unicode="&#x167;" horiz-adv-x="737" 
d="M92 569v109h139v223h-135v117h137v297h138v-297h258v-117h-258v-223h254v-109h-254v-184q0 -67 17 -118t41.5 -78.5t58 -44.5t60 -22t54.5 -5l47 4v-125q-22 -4 -59 -4q-29 0 -57.5 3t-65.5 13t-68.5 26.5t-63.5 46t-54 68t-36 97t-14 129.5v194h-139z" />
    <glyph glyph-name="Utilde" unicode="&#x168;" horiz-adv-x="1482" 
d="M190 502v938h144v-936q0 -185 110 -291.5t297 -106.5q188 0 299 107.5t111 294.5v932h141v-938q0 -238 -151.5 -382.5t-397.5 -144.5q-247 0 -400 144.5t-153 382.5zM422 1546q0 240 188 240q38 0 70 -15t54 -37t42 -44t43.5 -37t48.5 -15q24 0 41 14t25.5 37.5t12 45.5
t3.5 45h111q0 -240 -189 -240q-46 0 -85 23t-61 50t-52 50t-60 23q-24 0 -41 -14t-24.5 -37t-10.5 -44.5t-3 -44.5h-113z" />
    <glyph glyph-name="utilde" unicode="&#x169;" horiz-adv-x="1204" 
d="M154 375v655h139v-618q0 -55 4 -95t17.5 -82t37 -68.5t65 -43.5t99.5 -17q114 0 202.5 61.5t133.5 159t45 210.5v493h139v-1030h-135v154l4 82h-4q-17 -41 -49.5 -83.5t-81.5 -84t-120.5 -67.5t-151.5 -26q-179 0 -261.5 98t-82.5 302zM276 1202q0 240 189 240
q38 0 70 -15t54 -37t42 -44t43.5 -37t48.5 -15q24 0 41 14t25.5 37.5t12 45.5t3.5 45h110q0 -240 -188 -240q-38 0 -70 15t-54 36t-42 42.5t-43.5 36.5t-48.5 15q-31 0 -50.5 -25t-24.5 -53t-5 -61h-113z" />
    <glyph glyph-name="Umacron" unicode="&#x16a;" horiz-adv-x="1482" 
d="M190 502v938h144v-936q0 -185 110 -291.5t297 -106.5q188 0 299 107.5t111 294.5v932h141v-938q0 -238 -151.5 -382.5t-397.5 -144.5q-247 0 -400 144.5t-153 382.5zM489 1608v112h504v-112h-504z" />
    <glyph glyph-name="umacron" unicode="&#x16b;" horiz-adv-x="1204" 
d="M154 375v655h139v-618q0 -55 4 -95t17.5 -82t37 -68.5t65 -43.5t99.5 -17q114 0 202.5 61.5t133.5 159t45 210.5v493h139v-1030h-135v154l4 82h-4q-17 -41 -49.5 -83.5t-81.5 -84t-120.5 -67.5t-151.5 -26q-179 0 -261.5 98t-82.5 302zM344 1264v112h504v-112h-504z" />
    <glyph glyph-name="Ubreve" unicode="&#x16c;" horiz-adv-x="1482" 
d="M190 502v938h144v-936q0 -185 110 -291.5t297 -106.5q188 0 299 107.5t111 294.5v932h141v-938q0 -238 -151.5 -382.5t-397.5 -144.5q-247 0 -400 144.5t-153 382.5zM741 1534q-97 0 -166 58t-69 161v31h112v-27q0 -63 35.5 -95t87.5 -32t88.5 32t36.5 95v27h113v-31
q0 -103 -69.5 -161t-168.5 -58z" />
    <glyph glyph-name="ubreve" unicode="&#x16d;" horiz-adv-x="1204" 
d="M154 375v655h139v-618q0 -55 4 -95t17.5 -82t37 -68.5t65 -43.5t99.5 -17q114 0 202.5 61.5t133.5 159t45 210.5v493h139v-1030h-135v154l4 82h-4q-17 -41 -49.5 -83.5t-81.5 -84t-120.5 -67.5t-151.5 -26q-179 0 -261.5 98t-82.5 302zM594 1190q-97 0 -166.5 58
t-69.5 161v31h113v-27q0 -63 35.5 -95t87.5 -32t88.5 32t36.5 95v27h112v-31q0 -103 -69 -161t-168 -58z" />
    <glyph glyph-name="Uring" unicode="&#x16e;" horiz-adv-x="1482" 
d="M190 502v938h144v-936q0 -185 110 -291.5t297 -106.5q188 0 299 107.5t111 294.5v932h141v-938q0 -238 -151.5 -382.5t-397.5 -144.5q-247 0 -400 144.5t-153 382.5zM741 1518q-64 0 -108.5 41t-44.5 104t44.5 104t108.5 41q65 0 110.5 -41t45.5 -104t-45.5 -104
t-110.5 -41zM741 1595q30 0 49 19t19 49q0 31 -18.5 50.5t-49.5 19.5q-29 0 -47 -19.5t-18 -50.5q0 -30 18 -49t47 -19z" />
    <glyph glyph-name="uring" unicode="&#x16f;" horiz-adv-x="1204" 
d="M154 375v655h139v-618q0 -55 4 -95t17.5 -82t37 -68.5t65 -43.5t99.5 -17q114 0 202.5 61.5t133.5 159t45 210.5v493h139v-1030h-135v154l4 82h-4q-17 -41 -49.5 -83.5t-81.5 -84t-120.5 -67.5t-151.5 -26q-179 0 -261.5 98t-82.5 302zM594 1174q-64 0 -109 41t-45 104
t45 104t109 41q65 0 110.5 -41t45.5 -104t-45.5 -104t-110.5 -41zM594 1251q30 0 49 19t19 49q0 31 -18.5 50.5t-49.5 19.5q-29 0 -47.5 -19.5t-18.5 -50.5q0 -29 18.5 -48.5t47.5 -19.5z" />
    <glyph glyph-name="Uhungarumlaut" unicode="&#x170;" horiz-adv-x="1482" 
d="M190 502v938h144v-936q0 -185 110 -291.5t297 -106.5q188 0 299 107.5t111 294.5v932h141v-938q0 -238 -151.5 -382.5t-397.5 -144.5q-247 0 -400 144.5t-153 382.5zM784 1540l144 244h157l-178 -244h-123zM510 1540l133 244h139l-139 -244h-133z" />
    <glyph glyph-name="uhungarumlaut" unicode="&#x171;" horiz-adv-x="1204" 
d="M154 375v655h139v-618q0 -55 4 -95t17.5 -82t37 -68.5t65 -43.5t99.5 -17q114 0 202.5 61.5t133.5 159t45 210.5v493h139v-1030h-135v154l4 82h-4q-17 -41 -49.5 -83.5t-81.5 -84t-120.5 -67.5t-151.5 -26q-179 0 -261.5 98t-82.5 302zM639 1196l143 244h158l-178 -244
h-123zM365 1196l133 244h139l-139 -244h-133z" />
    <glyph glyph-name="Uogonek" unicode="&#x172;" horiz-adv-x="1482" 
d="M674 -231q0 106 106 208q-12 -2 -37 -2q-247 0 -400 144.5t-153 382.5v938h144v-936q0 -185 110 -291.5t297 -106.5q188 0 299 107.5t111 294.5v932h141v-938q0 -76 -16 -142t-40.5 -112t-62.5 -88.5t-72 -69t-79 -55.5q-52 -33 -83.5 -55.5t-67 -54t-52 -63t-16.5 -65.5
q0 -26 13 -46t31.5 -30t37.5 -16.5t32 -8.5l13 -1l-31 -115q-5 0 -13 1t-31.5 6t-44.5 12.5t-47 22t-44.5 33.5t-31.5 48.5t-13 65.5z" />
    <glyph glyph-name="uogonek" unicode="&#x173;" horiz-adv-x="1204" 
d="M154 375v655h139v-618q0 -55 4 -95t17.5 -82t37 -68.5t65 -43.5t99.5 -17q114 0 202.5 61.5t133.5 159t45 210.5v493h139v-1030q-147 -120 -147 -203q0 -26 13 -46t31.5 -30t37.5 -16.5t32 -8.5l13 -1l-33 -115q-9 1 -24 3t-53.5 14t-68 30t-53.5 55.5t-24 86.5
q0 119 141 231v154l4 82h-4q-17 -41 -49.5 -83.5t-81.5 -84t-120.5 -67.5t-151.5 -26q-179 0 -261.5 98t-82.5 302z" />
    <glyph glyph-name="Wcircumflex" unicode="&#x174;" horiz-adv-x="1898" 
d="M948 1229h-4q-22 -123 -47 -215l-274 -1014h-170l-373 1440h147l279 -1118l33 -154h4q1 0 4.5 22t11 61t16.5 71l304 1118h135l303 -1118q9 -32 17 -71t11.5 -61t4.5 -22h4q14 80 32 154l289 1118h148l-383 -1440h-170l-275 1014q-11 41 -23 94.5t-18 87.5zM709 1540
l170 244h153l172 -244h-135l-111 166h-4l-110 -166h-135z" />
    <glyph glyph-name="wcircumflex" unicode="&#x175;" horiz-adv-x="1640" 
d="M383 0l-348 1030h147l250 -768l31 -110h4q15 61 31 110l254 764h137l254 -764l31 -110h4q14 59 30 110l250 768h148l-349 -1030h-151l-252 733l-33 111h-4q-15 -60 -31 -111l-251 -733h-152zM571 1196l170 244h154l172 -244h-135l-111 166h-4l-110 -166h-136z" />
    <glyph glyph-name="Ycircumflex" unicode="&#x176;" horiz-adv-x="1175" 
d="M516 0v618l-485 822h162l305 -522q19 -33 41 -76t35 -70l12 -27h4q43 97 88 173l305 522h160l-484 -822v-618h-143zM340 1540l170 244h154l172 -244h-136l-110 166h-4l-111 -166h-135z" />
    <glyph glyph-name="ycircumflex" unicode="&#x177;" horiz-adv-x="1021" 
d="M14 -369l54 111q6 -5 17.5 -13t43.5 -21t61 -13q122 0 195 168l64 145l-431 1022h154l303 -751l37 -109h4q15 58 35 109l297 751h151l-507 -1245q-40 -100 -118 -157.5t-179 -57.5q-47 0 -92.5 15t-66.5 31zM266 1196l170 244h154l172 -244h-135l-111 166h-4l-111 -166
h-135z" />
    <glyph glyph-name="Ydieresis" unicode="&#x178;" horiz-adv-x="1175" 
d="M516 0v618l-485 822h162l305 -522q19 -33 41 -76t35 -70l12 -27h4q43 97 88 173l305 522h160l-484 -822v-618h-143zM670 1608v176h127v-176h-127zM360 1608v176h125v-176h-125z" />
    <glyph glyph-name="Zacute" unicode="&#x179;" horiz-adv-x="1218" 
d="M88 0v100l743 1082q24 34 49 66.5t38 48.5l14 16v4q-35 -4 -105 -4h-700v127h981v-101l-743 -1081q-24 -35 -49.5 -67.5t-39.5 -48.5l-14 -15v-4q37 4 107 4h745v-127h-1026zM563 1540l142 244h161l-176 -244h-127z" />
    <glyph glyph-name="zacute" unicode="&#x17a;" horiz-adv-x="1042" 
d="M86 0v90l576 723l81 94v4q-34 -4 -102 -4h-530v123h821v-92l-576 -721q-17 -22 -38 -45.5t-34 -35.5l-12 -13v-4q37 4 105 4h575v-123h-866zM449 1196l141 244h162l-177 -244h-126z" />
    <glyph glyph-name="Zdotaccent" unicode="&#x17b;" horiz-adv-x="1218" 
d="M88 0v100l743 1082q24 34 49 66.5t38 48.5l14 16v4q-35 -4 -105 -4h-700v127h981v-101l-743 -1081q-24 -35 -49.5 -67.5t-39.5 -48.5l-14 -15v-4q37 4 107 4h745v-127h-1026zM565 1610v174h133v-174h-133z" />
    <glyph glyph-name="zdotaccent" unicode="&#x17c;" horiz-adv-x="1042" 
d="M86 0v90l576 723l81 94v4q-34 -4 -102 -4h-530v123h821v-92l-576 -721q-17 -22 -38 -45.5t-34 -35.5l-12 -13v-4q37 4 105 4h575v-123h-866zM451 1266v174h133v-174h-133z" />
    <glyph glyph-name="Zcaron" unicode="&#x17d;" horiz-adv-x="1218" 
d="M88 0v100l743 1082q24 34 49 66.5t38 48.5l14 16v4q-35 -4 -105 -4h-700v127h981v-101l-743 -1081q-24 -35 -49.5 -67.5t-39.5 -48.5l-14 -15v-4q37 4 107 4h745v-127h-1026zM553 1540l-170 244h135l111 -164h4l110 164h136l-172 -244h-154z" />
    <glyph glyph-name="zcaron" unicode="&#x17e;" horiz-adv-x="1042" 
d="M86 0v90l576 723l81 94v4q-34 -4 -102 -4h-530v123h821v-92l-576 -721q-17 -22 -38 -45.5t-34 -35.5l-12 -13v-4q37 4 105 4h575v-123h-866zM438 1196l-170 244h135l111 -164h4l111 164h135l-172 -244h-154z" />
    <glyph glyph-name="longs" unicode="&#x17f;" horiz-adv-x="522" 
d="M215 0v901h-129v117h129v49q0 97 26.5 170t64.5 112.5t89.5 63.5t91.5 30.5t82 6.5l64 -4v-125q-18 4 -49 4q-28 0 -54.5 -4.5t-60 -20.5t-57.5 -42.5t-41 -76t-17 -114.5v-1067h-139z" />
    <glyph glyph-name="florin" unicode="&#x192;" horiz-adv-x="1161" 
d="M70 -82q65 -10 131 -10q28 0 54.5 4.5t61.5 21t61.5 43.5t47.5 77t27 116l49 575h-183v119h195l21 219q9 96 41.5 168.5t73.5 112t94.5 63.5t94.5 30.5t83 6.5q36 0 78.5 -3.5t67.5 -6.5l24 -4v-125q-94 14 -166 14q-29 0 -56 -4.5t-61.5 -21t-61 -43.5t-47.5 -76.5
t-28 -116.5l-21 -213h258v-119h-268l-51 -581q-9 -97 -41.5 -169.5t-73.5 -112t-95 -63t-94.5 -30t-82.5 -6.5q-33 0 -66 3t-50 6l-17 3v123z" />
    <glyph glyph-name="Scommaaccent" unicode="&#x218;" horiz-adv-x="1101" 
d="M102 160l84 108q6 -6 17.5 -17t49.5 -38t79 -47.5t104 -37.5t127 -17q122 0 204.5 67.5t82.5 181.5q0 58 -24.5 105t-66 80.5t-95.5 62t-114 54t-119.5 52t-113.5 60t-95.5 74.5t-66 99.5t-24.5 129.5q0 159 127 273t322 114q70 0 135.5 -14.5t109 -35t76.5 -40.5t49 -34
l15 -15l-70 -119q-5 5 -15 13.5t-42 29.5t-66 37t-86.5 29.5t-105.5 13.5q-133 0 -218.5 -74.5t-85.5 -173.5q0 -55 24.5 -99t66 -75t95.5 -58t114 -52t119.5 -51t113.5 -61t95.5 -78t66 -104.5t24.5 -137.5q0 -166 -119.5 -278t-316.5 -112q-83 0 -160.5 19t-129 46
t-91 54.5t-58.5 46.5zM481 -129h133q13 -57 13 -100q0 -82 -47 -185h-115q39 95 39 166q0 54 -23 119z" />
    <glyph glyph-name="scommaaccent" unicode="&#x219;" horiz-adv-x="907" 
d="M84 125l76 100l13.5 -13.5t38.5 -30t63.5 -38t85.5 -30t106 -13.5q88 0 147.5 43t59.5 121q0 40 -24 72.5t-63 54t-88.5 44t-102 41t-102 46t-88.5 59t-63 80.5t-24 109q0 132 102.5 208.5t249.5 76.5q61 0 116 -11.5t90 -28t61.5 -33.5t37.5 -28l12 -12l-63 -106
q-4 4 -10.5 10t-31 22.5t-52 29t-72 22.5t-92.5 10q-86 0 -145.5 -39.5t-59.5 -120.5q0 -46 30.5 -81.5t79.5 -59.5t108.5 -46t118.5 -49t108 -60.5t79.5 -87t30.5 -122.5q0 -126 -98.5 -207.5t-253.5 -81.5q-70 0 -135 15.5t-107.5 37.5t-75.5 44t-48 38zM393 -129h133
q13 -57 13 -100q0 -82 -47 -185h-115q39 95 39 166q0 54 -23 119z" />
    <glyph glyph-name="uni021A" unicode="&#x21a;" horiz-adv-x="1204" 
d="M532 0v1313h-518v127h1176v-127h-516v-1313h-142zM532 -129h134q12 -52 12 -100q0 -82 -47 -185h-115q39 95 39 166q0 54 -23 119z" />
    <glyph glyph-name="uni021B" unicode="&#x21b;" horiz-adv-x="686" 
d="M207 375v526h-135v117h137v297h137v-297h258v-117h-258v-512q0 -58 11.5 -104t31.5 -74.5t43 -48t51.5 -29t50 -13t44.5 -3.5l47 4v-125q-23 -4 -60 -4q-43 0 -83.5 6.5t-93 30t-90.5 62.5t-64.5 112.5t-26.5 171.5zM369 -129h133q12 -52 12 -100q0 -82 -47 -185h-115
q39 95 39 166q0 57 -22 119z" />
    <glyph glyph-name="circumflex" unicode="&#x2c6;" horiz-adv-x="1032" 
d="M268 1540l170 244h154l172 -244h-135l-111 166h-4l-111 -166h-135z" />
    <glyph glyph-name="caron" unicode="&#x2c7;" horiz-adv-x="1032" 
d="M438 1540l-170 244h135l111 -164h4l111 164h135l-172 -244h-154z" />
    <glyph glyph-name="breve" unicode="&#x2d8;" horiz-adv-x="1034" 
d="M516 1534q-97 0 -166 58t-69 161v31h112v-27q0 -63 35.5 -95t87.5 -32t88.5 32t36.5 95v27h113v-31q0 -103 -69.5 -161t-168.5 -58z" />
    <glyph glyph-name="dotaccent" unicode="&#x2d9;" horiz-adv-x="1034" 
d="M451 1610v174h133v-174h-133z" />
    <glyph glyph-name="ring" unicode="&#x2da;" horiz-adv-x="1034" 
d="M516 1518q-64 0 -109 41t-45 104t45 104t109 41q65 0 110.5 -41t45.5 -104t-45.5 -104t-110.5 -41zM516 1595q30 0 49 19t19 49q0 31 -18.5 50.5t-49.5 19.5q-29 0 -47 -19.5t-18 -50.5q0 -30 18 -49t47 -19z" />
    <glyph glyph-name="ogonek" unicode="&#x2db;" horiz-adv-x="1032" 
d="M367 -231q0 46 20.5 91.5t49.5 77t58 57t49 37.5l21 13l103 -29q-7 -5 -18.5 -13t-41 -33.5t-52.5 -50.5t-41.5 -59t-18.5 -63q0 -41 32 -66.5t64 -30.5l31 -5l-31 -115q-5 0 -13 1t-31.5 6t-44.5 12.5t-47 22t-44.5 33.5t-31.5 48.5t-13 65.5z" />
    <glyph glyph-name="tilde" unicode="&#x2dc;" horiz-adv-x="1032" 
d="M197 1546q0 240 188 240q38 0 70 -15t54 -37t42 -44t43.5 -37t48.5 -15q24 0 41 14t25.5 37.5t12 45.5t3.5 45h111q0 -240 -189 -240q-46 0 -85 23t-61 50t-52 50t-60 23q-24 0 -41 -14t-25 -37t-11 -44.5t-3 -44.5h-112z" />
    <glyph glyph-name="hungarumlaut" unicode="&#x2dd;" horiz-adv-x="1032" 
d="M504 1540l143 244h158l-178 -244h-123zM229 1540l133 244h140l-140 -244h-133z" />
    <glyph glyph-name="uni1E9E" unicode="&#x1e9e;" horiz-adv-x="1388" 
d="M193 0v1057q0 163 110.5 273t274.5 110h634v-99l-321 -456l-53 -72v-4h43q113 0 203.5 -56.5t139 -147t48.5 -195.5q0 -169 -121 -289.5t-291 -120.5h-297v127h289q119 0 195.5 83t76.5 200q0 119 -79 199.5t-209 80.5h-166v101l278 401q28 40 50.5 70t31.5 40l8 11v4
q-14 -4 -88 -4h-362q-111 0 -181.5 -73t-70.5 -181v-1059h-143z" />
    <glyph glyph-name="thinspace" unicode="&#x2009;" horiz-adv-x="24" 
 />
    <glyph glyph-name="endash" unicode="&#x2013;" horiz-adv-x="1449" 
d="M213 522v119h1024v-119h-1024z" />
    <glyph glyph-name="emdash" unicode="&#x2014;" horiz-adv-x="1859" 
d="M213 522v119h1434v-119h-1434z" />
    <glyph glyph-name="quoteleft" unicode="&#x2018;" horiz-adv-x="440" 
d="M115 1106l116 352h111l-80 -352h-147z" />
    <glyph glyph-name="quoteright" unicode="&#x2019;" horiz-adv-x="428" 
d="M117 1108l80 352h147l-115 -352h-112z" />
    <glyph glyph-name="quotesinglbase" unicode="&#x201a;" horiz-adv-x="487" 
d="M104 -184l80 352h146l-115 -352h-111z" />
    <glyph glyph-name="quotedblleft" unicode="&#x201c;" horiz-adv-x="686" 
d="M360 1106l115 352h113l-80 -352h-148zM115 1106l116 352h111l-80 -352h-147z" />
    <glyph glyph-name="quotedblright" unicode="&#x201d;" horiz-adv-x="673" 
d="M362 1108l80 352h148l-115 -352h-113zM117 1108l80 352h147l-115 -352h-112z" />
    <glyph glyph-name="quotedblbase" unicode="&#x201e;" horiz-adv-x="729" 
d="M346 -184l80 352h145l-114 -352h-111zM104 -184l80 352h146l-115 -352h-111z" />
    <glyph glyph-name="dagger" unicode="&#x2020;" horiz-adv-x="808" 
d="M332 -102v1013h-240v119h240v410h137v-410h248v-119h-248v-1013h-137z" />
    <glyph glyph-name="daggerdbl" unicode="&#x2021;" horiz-adv-x="886" 
d="M131 367v118h240v426h-240v119h240v410h137v-410h248v-119h-248v-426h248v-118h-248v-469h-137v469h-240z" />
    <glyph glyph-name="bullet" unicode="&#x2022;" horiz-adv-x="821" 
d="M412 303q-122 0 -207.5 85.5t-85.5 207.5t85.5 207.5t207.5 85.5q121 0 205.5 -85.5t84.5 -207.5t-84.5 -207.5t-205.5 -85.5z" />
    <glyph glyph-name="ellipsis" unicode="&#x2026;" horiz-adv-x="1464" 
d="M1135 0v164h157v-164h-157zM653 0v164h158v-164h-158zM172 0v164h158v-164h-158z" />
    <glyph glyph-name="perthousand" unicode="&#x2030;" horiz-adv-x="2177" 
d="M401 895q-120 0 -203 83t-83 202q0 118 83.5 201t202.5 83q120 0 204.5 -83.5t84.5 -200.5q0 -118 -84.5 -201.5t-204.5 -83.5zM127 0l1098 1440h145l-1096 -1440h-147zM401 1010q70 0 119 49.5t49 120.5q0 70 -49 120t-119 50t-117.5 -50t-47.5 -120q0 -71 47.5 -120.5
t117.5 -49.5zM1495 258q0 118 84.5 202.5t202.5 84.5q120 0 204.5 -84t84.5 -203q0 -117 -84.5 -200t-204.5 -83q-119 0 -203 83t-84 200zM807 258q0 119 83.5 203t203.5 84t204 -84t84 -203q0 -117 -84 -200t-204 -83t-203.5 83t-83.5 200zM1618 260q0 -71 47 -120.5
t117 -49.5t119 49.5t49 120.5q0 70 -49 120t-119 50t-117 -50t-47 -120zM930 260q0 -71 47 -120.5t117 -49.5t119 49.5t49 120.5q0 70 -49 120t-119 50t-117 -50t-47 -120z" />
    <glyph glyph-name="guilsinglleft" unicode="&#x2039;" horiz-adv-x="702" 
d="M438 158l-336 420l336 421h150l-336 -421l336 -420h-150z" />
    <glyph glyph-name="guilsinglright" unicode="&#x203a;" horiz-adv-x="704" 
d="M115 158l336 420l-336 421h151l336 -421l-336 -420h-151z" />
    <glyph glyph-name="fraction" unicode="&#x2044;" horiz-adv-x="323" 
d="M-121 0h-121l688 1440h119z" />
    <glyph glyph-name="zerosuperior" unicode="&#x2070;" 
d="M391 846q-311 0 -311 467q0 465 311 465t311 -465q0 -467 -311 -467zM391 952q197 0 197 361q0 358 -197 358q-56 0 -95.5 -27t-60.5 -77.5t-30.5 -112t-9.5 -141.5q0 -81 9.5 -143t30.5 -113t60.5 -78t95.5 -27z" />
    <glyph glyph-name="foursuperior" unicode="&#x2074;" 
d="M483 866v234h-434v78l434 579h113v-555h133v-102h-133v-234h-113zM188 1202h295v279l6 127h-4q-32 -56 -65 -101l-232 -301v-4z" />
    <glyph glyph-name="fivesuperior" unicode="&#x2075;" 
d="M373 846q-52 0 -99.5 14.5t-78.5 35t-55 41.5t-35 35l-11 15l78 72q3 -4 8 -11.5t23.5 -26t39.5 -32.5t55 -25.5t71 -11.5q85 0 145.5 56t60.5 139t-60 139.5t-148 56.5q-41 0 -81 -12.5t-60 -24.5l-19 -12l-68 27l49 436h447v-102h-352l-17 -160l-12 -76h4q51 25 123 25
q133 0 222 -87t89 -210q0 -124 -92 -212.5t-227 -88.5z" />
    <glyph glyph-name="sixsuperior" unicode="&#x2076;" 
d="M414 846q-146 0 -235 114.5t-89 296.5q0 71 13.5 142t44 140t75 121.5t111 85t147.5 32.5q45 0 90.5 -10t68.5 -20l22 -11l-46 -99q-63 33 -133 33q-109 0 -179 -89.5t-89 -221.5h4q30 35 86.5 57.5t108.5 22.5q129 0 210 -80t81 -209q0 -141 -82.5 -223t-208.5 -82z
M414 952q82 0 129 57t47 142q0 88 -52 141.5t-135 53.5q-76 0 -135 -43.5t-59 -92.5q0 -93 58.5 -175.5t146.5 -82.5z" />
    <glyph glyph-name="sevensuperior" unicode="&#x2077;" 
d="M133 866l356 672l68 117v4q-39 -4 -102 -4h-359v102h594v-76l-430 -815h-127z" />
    <glyph glyph-name="eightsuperior" unicode="&#x2078;" 
d="M82 1120q0 45 16.5 87t42.5 72.5t47 49t41 31.5q-108 74 -108 188q0 108 82 169t194 61q113 0 197 -62t84 -174q0 -120 -117 -237q65 -38 101 -85.5t36 -117.5q0 -108 -88 -182t-215 -74q-81 0 -150.5 30t-116 94t-46.5 150zM584 1104q0 32 -14 57.5t-47 48t-57.5 35.5
t-77.5 36t-75 34q-116 -82 -116 -191q0 -80 59 -128t139 -48q72 0 130.5 45t58.5 111zM233 1544q0 -19 6.5 -37t14 -31t25.5 -27.5t29.5 -23t38.5 -21.5t39 -18.5t45 -19t44 -18.5q90 90 90 190q0 65 -50.5 101t-119.5 36q-66 0 -114 -34t-48 -97z" />
    <glyph glyph-name="ninesuperior" unicode="&#x2079;" 
d="M78 1475q0 139 83 221t208 82q146 0 234.5 -115t88.5 -297q0 -71 -13.5 -141.5t-44 -139.5t-75 -121.5t-111.5 -85t-147 -32.5q-45 0 -90 11t-67 21l-23 11l45 96q63 -33 133 -33q109 0 179 90.5t89 223.5h-4q-32 -35 -87.5 -58.5t-106.5 -23.5q-129 0 -210 81t-81 210z
M193 1473q0 -86 51.5 -140.5t134.5 -54.5q76 0 135 43t59 94q0 93 -58 175.5t-146 82.5q-82 0 -129 -57t-47 -143z" />
    <glyph glyph-name="zeroinferior" unicode="&#x2080;" 
d="M391 -342q-311 0 -311 467q0 465 311 465t311 -465q0 -467 -311 -467zM391 -236q197 0 197 361q0 358 -197 358q-56 0 -95.5 -27t-60.5 -77.5t-30.5 -112t-9.5 -141.5q0 -81 9.5 -143t30.5 -113t60.5 -78t95.5 -27z" />
    <glyph glyph-name="oneinferior" unicode="&#x2081;" 
d="M152 -322v103h194v592l2 49h-2q-8 -16 -43 -51l-82 -78l-71 76l202 200h107v-788h190v-103h-497z" />
    <glyph glyph-name="twoinferior" unicode="&#x2082;" 
d="M109 -322q-7 40 -7 64q0 69 24.5 127t64 98.5t86.5 75.5t94.5 66t87 62t64 71t24.5 86q0 66 -47 111.5t-121 45.5q-48 0 -93.5 -25t-67.5 -50l-21 -25l-74 72q4 5 10.5 14t31 32t52.5 40.5t73 32t93 14.5q127 0 203 -73.5t76 -186.5q0 -61 -23.5 -112.5t-61.5 -87.5
t-84 -68.5t-92.5 -62t-85 -60t-64.5 -71t-28 -87.5h455v-103h-569z" />
    <glyph glyph-name="threeinferior" unicode="&#x2083;" 
d="M379 -342q-55 0 -105.5 14t-82.5 33.5t-56.5 39.5t-35.5 34l-11 14l72 78q3 -4 9 -11.5t27 -26t44.5 -32.5t60.5 -25.5t76 -11.5q74 0 133 53t59 130q0 79 -60.5 125.5t-139.5 46.5h-68l-29 63l203 236q9 11 21.5 24t21.5 20l8 7v4q-38 -6 -75 -6h-316v102h539v-73
l-244 -283q47 -6 89.5 -23t81 -47.5t61 -81t22.5 -114.5q0 -120 -88 -204.5t-217 -84.5z" />
    <glyph glyph-name="fourinferior" unicode="&#x2084;" 
d="M483 -322v234h-434v78l434 579h113v-555h133v-102h-133v-234h-113zM188 14h295v279l6 127h-4q-32 -56 -65 -101l-232 -301v-4z" />
    <glyph glyph-name="fiveinferior" unicode="&#x2085;" 
d="M373 -342q-52 0 -99.5 14.5t-78.5 35t-55 41.5t-35 35l-11 15l78 72q3 -4 8 -11.5t23.5 -26t39.5 -32.5t55 -25.5t71 -11.5q85 0 145.5 56t60.5 139t-60 140t-148 57q-41 0 -81 -12.5t-60 -25.5l-19 -12l-68 27l49 436h447v-102h-352l-17 -160l-12 -76h4q51 25 123 25
q133 0 222 -87t89 -210q0 -124 -92 -212.5t-227 -88.5z" />
    <glyph glyph-name="sixinferior" unicode="&#x2086;" 
d="M414 -342q-146 0 -235 115t-89 297q0 90 22.5 178.5t67.5 166.5t123 126.5t178 48.5q45 0 90.5 -10t68.5 -20l22 -11l-46 -98q-63 32 -133 32q-109 0 -179 -89.5t-89 -221.5h4q30 35 86.5 57.5t108.5 22.5q129 0 210 -80t81 -209q0 -141 -82.5 -223t-208.5 -82zM414 -236
q82 0 129 57t47 142q0 88 -52 141.5t-135 53.5q-76 0 -135 -43t-59 -92q0 -93 58.5 -176t146.5 -83z" />
    <glyph glyph-name="seveninferior" unicode="&#x2087;" 
d="M133 -322l356 672l68 117v4q-39 -4 -102 -4h-359v102h594v-75l-430 -816h-127z" />
    <glyph glyph-name="eightinferior" unicode="&#x2088;" 
d="M82 -68q0 45 16.5 87t42.5 72.5t47 49t41 31.5q-108 74 -108 188q0 108 82 169t194 61q113 0 197 -62t84 -174q0 -120 -117 -237q65 -38 101 -85.5t36 -117.5q0 -108 -88 -182t-215 -74q-81 0 -150.5 30t-116 94t-46.5 150zM584 -84q0 32 -14 57.5t-47 48t-57.5 35.5
t-77.5 36t-75 34q-116 -82 -116 -190q0 -80 59.5 -128.5t138.5 -48.5q72 0 130.5 45t58.5 111zM233 356q0 -19 6.5 -37t14 -31t25.5 -27.5t29.5 -23t38.5 -21.5t39 -18.5t45 -19t44 -18.5q90 90 90 190q0 65 -50.5 101t-119.5 36q-66 0 -114 -34t-48 -97z" />
    <glyph glyph-name="nineinferior" unicode="&#x2089;" 
d="M78 287q0 139 83 221t208 82q146 0 234.5 -115t88.5 -297q0 -71 -13.5 -141.5t-44 -139.5t-75 -121.5t-111.5 -85t-147 -32.5q-45 0 -90 11t-67 21l-23 11l45 96q63 -33 133 -33q109 0 179 90.5t89 223.5h-4q-32 -35 -87.5 -58.5t-106.5 -23.5q-129 0 -210 81t-81 210z
M193 285q0 -86 51.5 -140.5t134.5 -54.5q76 0 135 43t59 94q0 93 -58 175.5t-146 82.5q-82 0 -129 -57t-47 -143z" />
    <glyph glyph-name="Euro" unicode="&#x20ac;" horiz-adv-x="1208" 
d="M84 545v104h113q-5 28 -5 78.5t5 87.5h-113v105h131q61 241 249.5 392.5t438.5 151.5q49 0 98 -6t73 -12l24 -6l-35 -133q-76 22 -162 22q-194 0 -337.5 -112t-196.5 -297h626l-20 -105h-629q-12 -77 -2 -166h600l-20 -104h-557q48 -194 194.5 -314t345.5 -120
q45 0 90.5 7t68.5 14l23 7l33 -133q-94 -31 -217 -31q-258 0 -447.5 158.5t-244.5 411.5h-127z" />
    <glyph glyph-name="trademark" unicode="&#x2122;" horiz-adv-x="1908" 
d="M887 543l71 897h107l235 -514q8 -17 15 -38t11 -34l3 -12h4q11 45 29 84l235 514h107l70 -897h-113l-51 608l2 59h-4l-230 -499h-94l-229 499h-4l2 -59l-52 -608h-114zM375 543v790h-320v107h758v-107h-321v-790h-117z" />
    <glyph glyph-name="minus" unicode="&#x2212;" horiz-adv-x="1241" 
d="M102 522v119h1037v-119h-1037z" />
    <glyph glyph-name="infinity" unicode="&#x221e;" horiz-adv-x="1021" 
d="M512 360q-146 0 -250 104.5t-104 250.5q0 147 103.5 249.5t250.5 102.5q148 0 250 -102t102 -250q0 -147 -102.5 -251t-249.5 -104z" />
    <glyph glyph-name="approxequal" unicode="&#x2248;" horiz-adv-x="1241" 
d="M186 657l-67 91q59 59 137.5 100t161.5 41q65 0 124 -22.5t96.5 -49.5t87 -49.5t97.5 -22.5q62 0 124.5 33t107.5 82l67 -90q-57 -59 -135.5 -100t-163.5 -41q-65 0 -124 22.5t-96.5 49t-87 49t-97.5 22.5q-61 0 -122 -33t-110 -82zM186 301l-67 90q59 59 137.5 100
t161.5 41q65 0 124 -22.5t96.5 -49t87 -49t97.5 -22.5q61 0 123.5 33.5t108.5 81.5l67 -90q-57 -59 -135.5 -100.5t-163.5 -41.5q-65 0 -124 22.5t-96.5 49.5t-87 49.5t-97.5 22.5q-61 0 -122 -33t-110 -82z" />
    <glyph glyph-name="notequal" unicode="&#x2260;" horiz-adv-x="1241" 
d="M258 170l127 174h-242v119h326l176 237h-502v119h584l176 240l86 -62l-133 -178h242v-119h-324l-176 -237h500v-119h-582l-172 -233z" />
    <glyph glyph-name="lessequal" unicode="&#x2264;" horiz-adv-x="1241" 
d="M141 530v103l926 414v-138l-752 -325v-4l752 -326v-137zM143 -213h924v-119h-924v119z" />
    <glyph glyph-name="greaterequal" unicode="&#x2265;" horiz-adv-x="1241" 
d="M174 117v137l754 326v4l-754 325v138l926 -414v-103zM174 -213h924v-119h-924v119z" />
    <glyph glyph-name="commaaccent" horiz-adv-x="686" 
d="M276 -129h134q12 -52 12 -100q0 -82 -47 -185h-115q39 95 39 166q0 54 -23 119z" />
    <glyph glyph-name="apple" horiz-adv-x="2314" 
d="M344 -10v311l-258 148v569l258 145v310l543 290l274 -145l271 145l542 -290v-310l254 -145v-569l-254 -148v-311l-542 -289l-271 145l-274 -145zM426 61l487 -258l248 136l242 -136l487 258v285l234 131v510l-234 135v279l-487 258l-242 -131l-248 131l-487 -258v-279
l-233 -135v-510l233 -131v-285zM496 131v248l-203 123v461l203 118v252l440 234l225 -121l219 121l439 -234v-252l204 -118v-461l-204 -123v-248l-439 -233l-219 118l-225 -118zM907 186h123v445h447v108h-447v367h361q33 0 44 -11.5t11 -43.5v-78h115v131q0 60 -26 86.5
t-89 26.5h-666v-111h127v-920z" />
    <glyph glyph-name="zero.tnum" horiz-adv-x="1157" 
d="M582 -25q-110 0 -195.5 38t-142 104t-93 161.5t-52 204t-15.5 238.5q0 129 15.5 237t52 203t93 161t142 104t195.5 38t195.5 -38t141 -104t92 -161t51.5 -203t15 -237q0 -130 -15 -238.5t-51.5 -204t-92 -161.5t-141 -104t-195.5 -38zM582 109q99 0 168.5 46t108 132.5
t55 191.5t16.5 242q0 136 -16.5 241t-55 191t-108 132t-168.5 46q-100 0 -170 -46t-108.5 -132t-55.5 -191t-17 -241t17 -242t55.5 -192t108.5 -132t170 -46z" />
    <glyph glyph-name="one.tnum" horiz-adv-x="1157" 
d="M211 0v127h324v1057l2 80h-5q-14 -31 -71 -86l-154 -154l-90 92l326 324h131v-1313h317v-127h-780z" />
    <glyph glyph-name="two.tnum" horiz-adv-x="1157" 
d="M150 0q-9 50 -9 92q0 81 25 153t68 128t98.5 106.5t116.5 94t122 85t116.5 85t98.5 89t68 102t25 118.5q0 120 -83 198t-216 78q-59 0 -114 -20t-91 -49t-64 -58t-41 -49l-12 -20l-106 71q5 11 16 28.5t50 62t85 79t123 62.5t162 28q200 0 319 -114.5t119 -288.5
q0 -98 -40 -183t-104.5 -147t-142 -119t-155 -109.5t-142 -106.5t-105 -123t-40.5 -146h752v-127h-899z" />
    <glyph glyph-name="three.tnum" horiz-adv-x="1157" 
d="M106 172l87 109q6 -7 17 -18.5t48.5 -40.5t77.5 -51.5t101.5 -41t123.5 -18.5q133 0 231.5 88.5t98.5 222.5q0 74 -30 133.5t-81 96.5t-115.5 57t-136.5 20h-98l-35 84l361 422l75 80v4q-40 -6 -116 -6h-541v127h842v-94l-430 -496q59 -3 117 -17.5t119.5 -47t108 -78.5
t76 -119t29.5 -162q0 -122 -61 -225t-170 -164.5t-242 -61.5q-79 0 -155.5 20.5t-128.5 49.5t-93 57.5t-60 49.5z" />
    <glyph glyph-name="four.tnum" horiz-adv-x="1157" 
d="M49 399v93l709 948h153v-916h205v-125h-205v-399h-141v399h-721zM221 524h549v602l6 136h-4q-33 -58 -72 -109l-479 -625v-4z" />
    <glyph glyph-name="five.tnum" horiz-adv-x="1157" 
d="M119 180l90 99q4 -7 12.5 -18t39 -40t65 -51.5t91.5 -40.5t118 -18q151 0 254.5 96t103.5 242t-105 241.5t-260 95.5q-68 0 -133.5 -19t-96.5 -39l-32 -19l-90 32l78 699h696v-127h-573l-41 -369l-14 -82h4q10 6 28.5 15.5t76 25t114.5 15.5q214 0 354.5 -136t140.5 -333
q0 -131 -65.5 -240t-180.5 -171.5t-253 -62.5q-80 0 -153 21t-120 51t-82.5 60.5t-51.5 51.5z" />
    <glyph glyph-name="six.tnum" horiz-adv-x="1157" 
d="M618 -25q-154 0 -273 87.5t-183 241.5t-64 347q0 111 22.5 222.5t73 219t122.5 189.5t179.5 132t235.5 50q71 0 137 -15t96 -29l31 -15l-53 -125q-10 6 -28.5 14.5t-73 22.5t-107.5 14q-87 0 -162.5 -33t-129.5 -89t-94 -130.5t-62.5 -156t-30.5 -168.5h4q52 76 152 122
t213 46q197 0 322.5 -130.5t125.5 -334.5q0 -219 -129.5 -350.5t-323.5 -131.5zM616 109q143 0 226.5 96.5t83.5 249.5q0 154 -89 247t-237 93q-140 0 -244 -77.5t-104 -168.5q0 -99 45 -199t131 -170.5t188 -70.5z" />
    <glyph glyph-name="seven.tnum" horiz-adv-x="1157" 
d="M250 0l581 1180q17 35 37 68t32 49l11 16v4q-36 -4 -108 -4h-674v127h936v-99l-668 -1341h-147z" />
    <glyph glyph-name="eight.tnum" horiz-adv-x="1157" 
d="M96 414q0 65 22 127.5t51 105t66 80t59 54t38 26.5q-178 119 -178 293q0 71 27.5 135.5t79.5 116t137 82t190 30.5q200 0 320 -102.5t120 -271.5q0 -71 -24 -143t-59.5 -125.5t-56.5 -80t-36 -41.5q99 -56 154 -130t55 -179q0 -112 -60.5 -207t-170.5 -152t-246 -57
q-131 0 -241.5 52t-178.5 153.5t-68 233.5zM915 393q0 45 -21 84t-51 66.5t-82.5 57.5t-95 48.5t-109.5 47.5t-107 48q-18 -11 -39 -26.5t-53 -46.5t-56 -65.5t-41.5 -84.5t-17.5 -102q0 -140 102.5 -227t239.5 -87q132 0 231.5 81.5t99.5 205.5zM297 1098q0 -34 11 -64.5
t27.5 -54t46 -47t56 -40t68.5 -36.5t72.5 -32.5t79 -33t77.5 -32.5q16 15 36 39t48.5 67t47 101t18.5 118q0 114 -82.5 182t-214.5 68q-134 0 -212.5 -67.5t-78.5 -167.5z" />
    <glyph glyph-name="nine.tnum" horiz-adv-x="1157" 
d="M428 -25q-70 0 -136 15t-97 30l-31 15l53 125q10 -6 28.5 -14.5t73 -22.5t107.5 -14q88 0 163.5 33t129.5 89t94 131t63 156t31 168h-4q-54 -76 -153.5 -122t-212.5 -46q-196 0 -321.5 130.5t-125.5 334.5q0 219 128.5 350t322.5 131q154 0 273 -87.5t183 -241.5t64 -347
q0 -92 -16.5 -185.5t-48.5 -185t-84.5 -171t-120.5 -140.5t-161.5 -96t-201.5 -35zM559 645q141 0 244.5 77.5t103.5 168.5q0 99 -45 199t-131 170.5t-188 70.5q-143 0 -226.5 -96.5t-83.5 -249.5q0 -154 89 -247t237 -93z" />
    <glyph glyph-name="hyphen.case" horiz-adv-x="1081" 
d="M250 651v127h581v-127h-581z" />
    <glyph glyph-name="parenleft.case" horiz-adv-x="669" 
d="M561 -133h-131q-108 188 -168.5 417.5t-60.5 467.5q0 425 229 804h131q-231 -385 -231 -804q0 -476 231 -885z" />
    <glyph glyph-name="parenright.case" horiz-adv-x="669" 
d="M240 -133h-131q231 409 231 885q0 419 -231 804h131q229 -379 229 -804q0 -238 -60.5 -467.5t-168.5 -417.5z" />
    <glyph glyph-name="bracketleft.case" horiz-adv-x="651" 
d="M258 -133v1689h277v-114h-148v-1460h148v-115h-277z" />
    <glyph glyph-name="bracketright.case" horiz-adv-x="651" 
d="M393 1556v-1689h-276v115h147v1460h-147v114h276z" />
    <glyph glyph-name="braceleft.case" horiz-adv-x="768" 
d="M322 231v195q0 43 -9.5 79.5t-25 60t-34 41.5t-37.5 27.5t-34.5 15.5t-25.5 8l-9 1v127q7 1 19 3.5t42 18t53 38.5t42 69.5t19 106.5v168q0 96 24.5 167.5t58.5 108t80 58.5t78 27t64 5h30v-114h-18q-20 0 -39.5 -3.5t-48 -18.5t-49.5 -40.5t-36 -75.5t-15 -118v-201
q0 -56 -17 -103.5t-41 -75t-48 -47t-41 -27.5l-17 -7v-4q7 -2 18 -6.5t39 -25t50 -46.5t39.5 -74.5t17.5 -107.5v-225q0 -67 15 -117t36 -75.5t49.5 -41t48 -19t39.5 -3.5h18v-115q-12 -2 -30 -2q-32 0 -64 5t-78 27t-80 59t-58.5 109t-24.5 168z" />
    <glyph glyph-name="braceright.case" horiz-adv-x="768" 
d="M111 -20h20q19 0 38.5 3.5t47.5 19t49 41t36 75.5t15 117v225q0 59 17 107t41 75t48 46t41 25l17 7v4q-7 2 -18 7.5t-39 26.5t-50 47.5t-39.5 74.5t-17.5 104v201q0 57 -10 101.5t-27.5 71t-36.5 44.5t-42 26t-38.5 10.5t-31.5 2.5h-20v114h32q21 0 42 -2.5t52.5 -11.5
t58.5 -23.5t55.5 -42.5t48.5 -65.5t33 -94t13 -126.5v-168q0 -60 18 -106.5t44 -70t51.5 -38t43.5 -17.5l18 -4v-127q-7 -1 -19 -3.5t-42 -17.5t-53 -37.5t-42 -68.5t-19 -106v-195q0 -70 -13 -127t-33 -94.5t-48.5 -66t-55.5 -43t-58.5 -23.5t-52.5 -11.5t-42 -2.5l-32 2
v115z" />
    <glyph glyph-name="at.case" horiz-adv-x="1681" 
d="M164 719q0 154 58 293.5t156 239.5t232.5 159t282.5 59q134 0 234 -32t157 -87.5t84 -122.5t27 -145v-645h145v-114h-551q-175 0 -292 115.5t-117 277.5q0 161 117 277t292 116h266q-3 103 -92 171.5t-260 68.5q-123 0 -234 -50.5t-190 -135.5t-125.5 -201.5
t-46.5 -243.5q0 -172 77.5 -315.5t217 -227.5t311.5 -84v-123q-209 0 -381.5 100t-270 272t-97.5 378zM723 717q0 -116 80 -197.5t198 -81.5h254v563h-249q-120 0 -201.5 -83t-81.5 -201z" />
    <glyph glyph-name="guillemotleft.case" horiz-adv-x="1146" 
d="M844 281l-336 419l336 422h151l-336 -422l336 -419h-151zM477 281l-336 419l336 422h150l-336 -422l336 -419h-150z" />
    <glyph glyph-name="guillemotright.case" horiz-adv-x="1148" 
d="M520 281l336 419l-336 422h152l336 -422l-336 -419h-152zM152 281l335 419l-335 422h151l336 -422l-336 -419h-151z" />
    <glyph glyph-name="guilsinglleft.case" horiz-adv-x="778" 
d="M477 281l-336 419l336 422h150l-336 -422l336 -419h-150z" />
    <glyph glyph-name="guilsinglright.case" horiz-adv-x="780" 
d="M152 281l335 419l-335 422h151l336 -422l-336 -419h-151z" />
    <glyph glyph-name="endash.case" horiz-adv-x="1523" 
d="M250 645v119h1024v-119h-1024z" />
    <glyph glyph-name="emdash.case" horiz-adv-x="1933" 
d="M250 645v119h1433v-119h-1433z" />
    <glyph glyph-name="periodcentered.case" horiz-adv-x="632" 
d="M238 627v164h157v-164h-157z" />
    <glyph glyph-name="questiondown.case" horiz-adv-x="1028" 
d="M514 1282v158h158v-158h-158zM158 338q0 69 20 127.5t52.5 100.5t71.5 80t78 73t71.5 71.5t52.5 84t20 102.5v86h138v-92q0 -64 -19.5 -120.5t-51 -98t-69.5 -79.5t-76.5 -74t-70 -72.5t-51 -83.5t-19.5 -99q0 -100 75.5 -167.5t192.5 -67.5q62 0 124 21.5t93 43.5l31 21
l76 -103q-5 -5 -15 -13t-42.5 -28t-68.5 -35.5t-91.5 -28t-112.5 -12.5q-176 0 -292.5 102t-116.5 261z" />
    <glyph glyph-name="exclamdown.case" horiz-adv-x="700" 
d="M270 1282v158h158v-158h-158zM279 0l6 1063h131l6 -1063h-143z" />
    <glyph glyph-name="bullet.case" horiz-adv-x="899" 
d="M451 428q-121 0 -207 86t-86 207t86 207t207 86t205.5 -85.5t84.5 -207.5t-84.5 -207.5t-205.5 -85.5z" />
    <glyph glyph-name="zero.p_osf" horiz-adv-x="1200" 
d="M119 553q0 112 30 214.5t87.5 186t151.5 133.5t212 50t212 -50t151.5 -133.5t87.5 -186t30 -214.5t-30 -213.5t-87 -184t-151 -131.5t-213 -49q-95 0 -175.5 32.5t-136 88t-94.5 129.5t-57 157t-18 171zM262 557q0 -87 21 -167.5t61.5 -146t106.5 -104.5t149 -39
q67 0 123 25.5t95.5 69.5t67.5 102.5t41 123.5t13 134q0 87 -21.5 167t-62 145t-107 104t-149.5 39t-149 -39t-106.5 -103.5t-61.5 -144t-21 -166.5z" />
    <glyph glyph-name="one.p_osf" horiz-adv-x="940" 
d="M139 0v123h320v737l2 109h-4q-33 -27 -80 -56l-215 -129l-66 99l371 229h127v-989h285v-123h-740z" />
    <glyph glyph-name="two.p_osf" horiz-adv-x="1079" 
d="M121 0v100q172 114 285.5 199.5t202.5 170.5t130 160t41 148q0 114 -78 173t-196 59q-51 0 -103 -16.5t-89.5 -40t-68 -47t-45.5 -40.5l-16 -16l-80 96q6 8 18.5 21t53.5 45.5t86.5 58t116 46t143.5 20.5q96 0 174.5 -29t127 -77.5t74.5 -109t26 -126.5q0 -173 -137 -326
t-443 -348v-4q41 6 117 6h516v-123h-856z" />
    <glyph glyph-name="three.p_osf" horiz-adv-x="1044" 
d="M37 -78l84 98q5 -6 14.5 -17t42.5 -38t69.5 -47.5t94 -37.5t117.5 -17q133 0 230 81.5t97 211.5q0 94 -53.5 160t-133 95t-173.5 29h-100l-35 86l346 389q17 19 36.5 37.5t30.5 27.5l11 9v4q-41 -4 -117 -4h-475v123h786v-86l-432 -469q59 -3 116.5 -15t120 -41
t109 -71.5t77 -112t30.5 -155.5q0 -187 -134.5 -305.5t-336.5 -118.5q-77 0 -148.5 19t-119 46t-84 54t-53.5 46z" />
    <glyph glyph-name="four.p_osf" horiz-adv-x="1191" 
d="M61 76v92l676 944h154v-911h221v-125h-221v-314h-139v314h-691zM229 201h523v602q0 27 2 61t4 54l2 20h-4q-35 -68 -72 -119z" />
    <glyph glyph-name="five.p_osf" horiz-adv-x="1075" 
d="M70 -57l88 90q4 -6 12.5 -16.5t38.5 -36.5t63.5 -46t88 -36.5t112.5 -16.5q68 0 131 20.5t113.5 59t81 99.5t30.5 135q0 97 -51 169t-129 106t-170 34q-67 0 -132.5 -18t-97.5 -36l-32 -18l-88 31l78 649h672v-123h-551l-41 -336l-13 -78h5q10 6 29 14t77.5 22t116.5 14
q128 0 233.5 -48t171.5 -146.5t66 -229.5q0 -202 -140.5 -323.5t-351.5 -121.5q-57 0 -111 10.5t-94 27t-74.5 36.5t-58 39.5t-40.5 36t-25 26.5z" />
    <glyph glyph-name="six.p_osf" horiz-adv-x="1193" 
d="M135 594q0 107 22 213.5t72 209.5t121 181.5t177.5 127t234.5 48.5q70 0 136 -14t97 -28l31 -13l-53 -117q-10 5 -28.5 12.5t-73 20t-107.5 12.5q-87 0 -162.5 -31.5t-129.5 -85t-94 -125.5t-62.5 -150t-30.5 -161h4q53 78 152 122t214 44q196 0 321.5 -120.5
t125.5 -311.5q0 -137 -61 -241t-162.5 -158t-227.5 -54q-153 0 -271 80t-181.5 220.5t-63.5 318.5zM285 508q0 -67 26.5 -138.5t72.5 -132t116 -99t149 -38.5q143 0 226 91t83 235q0 141 -89 227t-236 86q-140 0 -244 -73t-104 -158z" />
    <glyph glyph-name="seven.p_osf" horiz-adv-x="1032" 
d="M188 -238l557 1104q16 33 33.5 63.5t27.5 44.5l9 15v4q-34 -4 -106 -4h-643v123h909v-92l-637 -1258h-150z" />
    <glyph glyph-name="eight.p_osf" horiz-adv-x="1187" 
d="M119 387q0 58 20 114t47.5 95t64 75t60 53.5t45.5 31.5q-86 52 -133 118t-47 158q0 67 27.5 128t78.5 109.5t133.5 77.5t184.5 29q194 0 312 -97.5t118 -254.5q0 -54 -17.5 -111t-38.5 -95t-51.5 -78.5t-42.5 -53.5t-26 -27q99 -53 155 -122.5t56 -169.5
q0 -161 -134 -276.5t-335 -115.5q-128 0 -236 48.5t-174.5 144t-66.5 219.5zM922 367q0 36 -13 67.5t-40.5 57.5t-57.5 47t-75.5 42t-82.5 37t-91 38t-89 38q-20 -11 -41.5 -25.5t-53.5 -43.5t-56.5 -60.5t-42 -77.5t-17.5 -94q0 -131 100 -212t234 -81q129 0 227.5 76
t98.5 191zM315 1030q0 -36 11.5 -66.5t38 -57t52 -46t71.5 -41t76.5 -34.5t87.5 -35.5t85 -34.5q17 14 37 36t49.5 62.5t48.5 94.5t19 110q0 106 -81.5 168.5t-211.5 62.5q-128 0 -205.5 -62.5t-77.5 -156.5z" />
    <glyph glyph-name="nine.p_osf" horiz-adv-x="1193" 
d="M221 -90q10 -5 28 -13t72.5 -21t108.5 -13q87 0 162 32t129 85.5t94.5 125.5t63 150.5t30.5 161.5h-4q-54 -78 -153.5 -122t-212.5 -44q-197 0 -322 120t-125 312q0 206 128.5 329.5t322.5 123.5q153 0 271 -80t181.5 -220.5t63.5 -318.5q0 -88 -16 -177.5t-48 -177.5
t-84.5 -164t-120 -135t-159.5 -92.5t-199 -33.5q-71 0 -137.5 14t-97.5 28l-31 13zM559 373q140 0 244 73t104 158q0 68 -26.5 139t-72 130.5t-116 98t-149.5 38.5q-144 0 -227 -90t-83 -234q0 -141 89 -227t237 -86z" />
    <glyph glyph-name="zero.t_osf" horiz-adv-x="1157" 
d="M98 553q0 112 30 214.5t88 186t152 133.5t212 50t212 -50t151.5 -133.5t87.5 -186t30 -214.5t-30 -213.5t-87 -184t-151 -131.5t-213 -49t-213 49t-151.5 132t-87.5 184.5t-30 212.5zM242 557q0 -87 21 -167.5t61.5 -146t106.5 -104.5t149 -39q67 0 123 25.5t95.5 69.5
t67.5 102.5t41 123.5t13 134q0 87 -21.5 167t-62 145t-107 104t-149.5 39t-149 -39t-106.5 -103.5t-61.5 -144t-21 -166.5z" />
    <glyph glyph-name="one.t_osf" horiz-adv-x="1157" 
d="M266 0v123h320v737l2 109h-4q-33 -27 -80 -56l-215 -129l-66 99l371 229h127v-989h285v-123h-740z" />
    <glyph glyph-name="two.t_osf" horiz-adv-x="1157" 
d="M174 0v100q172 115 285.5 200t203 170t130.5 160t41 148q0 114 -78.5 173t-196.5 59q-51 0 -103 -16.5t-89.5 -40t-67.5 -47t-45 -40.5l-16 -16l-80 96q6 8 18.5 21t53.5 45.5t86 58t115.5 46t143.5 20.5q96 0 174.5 -29t127 -77.5t74.5 -109t26 -126.5q0 -173 -137 -326
t-443 -348v-4q41 6 117 6h516v-123h-856z" />
    <glyph glyph-name="three.t_osf" horiz-adv-x="1157" 
d="M113 -78l84 98q5 -6 14.5 -17t42.5 -38t69.5 -47.5t94 -37.5t117.5 -17q133 0 230 81.5t97 211.5q0 94 -53.5 160t-133 95t-173.5 29h-101l-34 86l346 389q17 19 36.5 37.5t30.5 27.5l11 9v4q-41 -4 -117 -4h-475v123h786v-86l-432 -469q59 -3 116.5 -15t120 -41
t109 -71.5t77 -112t30.5 -155.5q0 -187 -134.5 -305.5t-336.5 -118.5q-77 0 -148.5 19t-119 46t-84 54t-53.5 46z" />
    <glyph glyph-name="four.t_osf" horiz-adv-x="1157" 
d="M63 76v92l676 944h154v-911h221v-125h-221v-314h-139v314h-691zM231 201h523v602q0 27 2 61t4 54l2 20h-4q-35 -68 -72 -119z" />
    <glyph glyph-name="five.t_osf" horiz-adv-x="1157" 
d="M125 -57l88 90q4 -6 12.5 -16.5t38.5 -36.5t63.5 -46t88 -36.5t112.5 -16.5q92 0 171.5 34.5t132.5 108t53 171.5q0 97 -51 169t-129 106t-170 34q-67 0 -132.5 -18t-98.5 -36l-32 -18l-88 31l78 649h672v-123h-551l-41 -336l-12 -78h4q10 6 29 14t77.5 22t116.5 14
q128 0 233.5 -48t171.5 -146.5t66 -229.5q0 -202 -140 -323.5t-351 -121.5q-57 0 -111 10.5t-94 27t-75 36.5t-58.5 39.5t-40.5 36t-25 26.5z" />
    <glyph glyph-name="six.t_osf" horiz-adv-x="1157" 
d="M96 594q0 107 22 213.5t72 209.5t121 181.5t177.5 127t234.5 48.5q70 0 136 -14t97 -28l31 -13l-53 -117q-10 5 -28.5 12.5t-73 20t-107.5 12.5q-87 0 -162.5 -31.5t-129.5 -85t-94 -125.5t-62.5 -150t-30.5 -161h4q53 78 152 122t214 44q196 0 321.5 -120.5
t125.5 -311.5q0 -137 -61 -241t-162.5 -158t-227.5 -54q-153 0 -271 80t-181.5 220.5t-63.5 318.5zM246 508q0 -67 26.5 -138.5t72.5 -132t116 -99t149 -38.5q143 0 226.5 91t83.5 235q0 141 -89 227t-237 86q-140 0 -244 -73t-104 -158z" />
    <glyph glyph-name="seven.t_osf" horiz-adv-x="1157" 
d="M250 -238l557 1104q16 33 33.5 63.5t27.5 44.5l9 15v4q-35 -4 -107 -4h-643v123h909v-92l-637 -1258h-149z" />
    <glyph glyph-name="eight.t_osf" horiz-adv-x="1157" 
d="M106 387q0 58 20.5 114t47.5 95t64 75t60.5 53.5t45.5 31.5q-86 52 -133 118t-47 158q0 67 27.5 128t78.5 109.5t133.5 77.5t184.5 29q194 0 312 -97.5t118 -254.5q0 -54 -17.5 -111t-38.5 -95t-51.5 -78.5t-42.5 -53.5t-26 -27q99 -53 155 -122.5t56 -169.5
q0 -161 -134 -276.5t-335 -115.5q-128 0 -236 48.5t-175 144t-67 219.5zM909 367q0 42 -20 78.5t-48.5 62t-79 53.5t-90.5 45t-106 44t-104 44q-20 -11 -41.5 -25.5t-53.5 -43.5t-56.5 -60.5t-42 -77.5t-17.5 -94q0 -131 100 -212t234 -81q129 0 227 76t98 191zM303 1030
q0 -36 11.5 -66.5t38 -57t52 -46t71.5 -41t76.5 -34.5t87.5 -35.5t85 -34.5q17 14 37 36t49.5 62.5t48.5 94.5t19 110q0 106 -81.5 168.5t-211.5 62.5q-128 0 -205.5 -62.5t-77.5 -156.5z" />
    <glyph glyph-name="nine.t_osf" horiz-adv-x="1157" 
d="M223 -90q10 -5 28 -13t72.5 -21t108.5 -13q87 0 162 32t129 85.5t94.5 125.5t63 150.5t30.5 161.5h-4q-54 -78 -153.5 -122t-212.5 -44q-197 0 -322 120t-125 312q0 206 128.5 329.5t322.5 123.5q153 0 271 -80t181.5 -220.5t63.5 -318.5q0 -88 -16 -177.5t-48 -177.5
t-84.5 -164t-120 -135t-159.5 -92.5t-199 -33.5q-71 0 -137.5 14t-97.5 28l-31 13zM561 373q140 0 244 73t104 158q0 68 -26.5 139t-72 130.5t-116 98t-149.5 38.5q-143 0 -226 -90t-83 -234q0 -141 89 -227t236 -86z" />
    <glyph glyph-name="dollar.osf" horiz-adv-x="1067" 
d="M111 174l86 100q6 -7 16 -18.5t45 -40.5t73.5 -51.5t97.5 -41t120 -18.5q106 0 178 53t72 146q0 53 -35 94.5t-90.5 70t-123.5 54.5t-135.5 56.5t-123 68t-90.5 97t-35 135.5q0 139 94.5 222t241.5 97v176h114v-174q57 -5 108.5 -19.5t85 -32t58.5 -34.5t36 -28l11 -11
l-69 -110q-4 4 -12.5 11.5t-36 26t-58.5 33t-80 26t-100 11.5q-68 0 -122 -18t-90 -63t-36 -111q0 -54 35 -95.5t90.5 -69t123.5 -53.5t135.5 -56t123 -68t90.5 -98t35 -138q0 -133 -97 -222.5t-251 -100.5v-191h-115v191q-68 8 -131 30.5t-104.5 49.5t-73.5 53t-46 43z" />
    <glyph glyph-name="cent.osf" horiz-adv-x="1165" 
d="M121 610q0 199 124 334t318 160v176h117v-172q63 -4 122 -21.5t97.5 -40t68.5 -44.5t44 -37l14 -15l-70 -108q-4 6 -12.5 15t-38 33t-63 42.5t-86.5 33.5t-109 15q-164 0 -273.5 -104t-109.5 -265q0 -163 109.5 -266.5t273.5 -103.5q56 0 108.5 14.5t87.5 35t61.5 40.5
t39.5 34l12 15l70 -109q-5 -6 -14.5 -15.5t-43 -35t-70.5 -46t-96.5 -39.5t-121.5 -23v-166h-117v170q-194 25 -318 160t-124 333z" />
    <glyph glyph-name="sterling.osf" horiz-adv-x="1261" 
d="M125 0v123h131v379h-92v106h92v217q0 161 123 269t311 108q57 0 112.5 -11t94 -26.5t69 -31t45.5 -26.5l15 -11l-76 -107q-5 3 -13.5 9t-35.5 20.5t-56 25.5t-71.5 20t-83.5 9q-135 0 -214 -74.5t-79 -181.5v-209h471v-106h-471v-379h693v-123h-965z" />
    <glyph glyph-name="yen.osf" horiz-adv-x="1234" 
d="M207 573v105h213l-307 504h161l254 -428q19 -33 41 -75.5t35 -68.5l12 -26h5q43 94 88 170l252 428h161l-305 -504h213v-105h-276l-64 -108v-47h340v-105h-340v-313h-143v313h-340v105h340v47l-66 108h-274z" />
    <glyph glyph-name="florin.osf" horiz-adv-x="1165" 
d="M70 -127q66 -10 129 -10q29 0 56 4.5t62 21t61.5 43.5t47.5 77.5t27 117.5l45 524h-183v117h195l18 225q6 81 29.5 146t58 105t73 67.5t83 41t78.5 18.5t68 5q36 0 78 -3.5t66 -6.5l23 -4v-125q-91 14 -165 14q-29 0 -55.5 -4.5t-61.5 -21t-61.5 -43.5t-47.5 -77.5
t-28 -117.5l-21 -219h258v-117h-266l-47 -530q-9 -97 -41.5 -170.5t-73.5 -112.5t-95 -63t-94.5 -30.5t-82.5 -6.5q-33 0 -66 3t-50 6l-17 3v123z" />
    <glyph glyph-name="Euro.osf" horiz-adv-x="1271" 
d="M125 416v100h131q-4 54 -4 80q0 39 2 59h-129v101h147q23 92 72.5 171t125.5 141.5t185.5 98t241.5 35.5q47 0 95.5 -6t73.5 -12l24 -6l-33 -121q-78 20 -162 20q-186 0 -307.5 -89.5t-167.5 -231.5h571l-22 -101h-572q-4 -23 -4 -65q0 -24 4 -74h549l-20 -100h-504
q49 -139 171.5 -226.5t305.5 -87.5q45 0 89.5 7t66.5 13l22 7l31 -123q-90 -31 -211 -31q-125 0 -231.5 34.5t-183 95.5t-128.5 139.5t-78 171.5h-151z" />
    <glyph glyph-name="zero.numerator" 
d="M391 528q-311 0 -311 467q0 465 311 465t311 -465q0 -467 -311 -467zM391 635q197 0 197 360q0 359 -197 359q-56 0 -95.5 -27t-60.5 -78t-30.5 -112.5t-9.5 -141.5q0 -81 9.5 -143t30.5 -112.5t60.5 -77.5t95.5 -27z" />
    <glyph glyph-name="one.numerator" 
d="M152 549v102h194v592l2 49h-2q-8 -16 -43 -51l-82 -78l-71 76l202 201h107v-789h190v-102h-497z" />
    <glyph glyph-name="two.numerator" 
d="M109 549q-7 40 -7 63q0 69 24.5 127t64 98.5t86.5 75.5t94.5 66t87 62t64 71t24.5 86q0 66 -47 112t-121 46q-31 0 -60.5 -10.5t-50.5 -25t-38 -29.5t-25 -25l-8 -11l-74 72q4 5 10.5 14t31 32t52.5 40.5t73 32t93 14.5q127 0 203 -73.5t76 -186.5q0 -61 -23.5 -112.5
t-61.5 -87.5t-84 -68.5t-92.5 -62t-85 -60t-64.5 -71t-28 -87.5h455v-102h-569z" />
    <glyph glyph-name="three.numerator" 
d="M379 528q-55 0 -105.5 14t-82.5 34t-56.5 40t-35.5 34l-11 14l72 77q3 -4 9 -11.5t27 -25.5t44.5 -32t60.5 -25.5t76 -11.5q74 0 133 52.5t59 129.5q0 79 -60.5 125.5t-139.5 46.5h-68l-29 64l203 235q9 11 21.5 24t21.5 20l8 7v4q-38 -6 -75 -6h-316v103h539v-74
l-244 -283q47 -6 89.5 -23t81 -47.5t61 -81t22.5 -114.5q0 -120 -88 -204.5t-217 -84.5z" />
    <glyph glyph-name="four.numerator" 
d="M483 549v233h-434v78l434 580h113v-555h133v-103h-133v-233h-113zM188 885h295v278l6 127h-4q-32 -55 -65 -100l-232 -301v-4z" />
    <glyph glyph-name="five.numerator" 
d="M373 528q-52 0 -99.5 14.5t-78.5 35.5t-55 42t-35 36l-11 14l78 71q3 -4 8 -11.5t23.5 -25.5t39.5 -32t55 -25.5t71 -11.5q86 0 146 56t60 138q0 83 -60 140t-148 57q-41 0 -81 -12t-60 -24l-19 -13l-68 27l49 436h447v-103h-352l-17 -159l-12 -76h4q51 24 123 24
q133 0 222 -87t89 -210q0 -124 -92 -212.5t-227 -88.5z" />
    <glyph glyph-name="six.numerator" 
d="M414 528q-146 0 -235 115t-89 297q0 90 22.5 178.5t67.5 166.5t123 126.5t178 48.5q45 0 90.5 -10t68.5 -20l22 -11l-46 -98q-63 33 -133 33q-109 0 -179 -89.5t-89 -222.5h4q30 35 86.5 57.5t108.5 22.5q129 0 210 -79.5t81 -208.5q0 -141 -83 -223.5t-208 -82.5z
M414 635q82 0 129 57t47 142q0 87 -51.5 140.5t-135.5 53.5q-76 0 -135 -43t-59 -92q0 -93 58.5 -175.5t146.5 -82.5z" />
    <glyph glyph-name="seven.numerator" 
d="M133 549l356 672q16 29 33 58t26 43l9 15v4q-39 -4 -102 -4h-359v103h594v-76l-430 -815h-127z" />
    <glyph glyph-name="eight.numerator" 
d="M82 803q0 45 16.5 87t42.5 72t46.5 48t41.5 32q-108 74 -108 189q0 108 81.5 168.5t194.5 60.5q72 0 134.5 -25t104.5 -80t42 -130q0 -121 -117 -238q65 -38 101 -85.5t36 -117.5q0 -108 -88 -182t-215 -74q-81 0 -150.5 30.5t-116 94.5t-46.5 150zM584 786
q0 32 -14 57.5t-47 48t-57.5 35.5t-77.5 36t-75 34q-116 -82 -116 -190q0 -80 59 -128t139 -48q73 0 131 44.5t58 110.5zM233 1227q0 -17 4 -32.5t13.5 -29.5t18 -24.5t26.5 -22.5t29.5 -19.5t35.5 -18.5l36 -16.5t40 -17t39 -16.5q90 90 90 191q0 65 -50.5 101t-119.5 36
q-66 0 -114 -34t-48 -97z" />
    <glyph glyph-name="nine.numerator" 
d="M78 1157q0 139 83 221t208 82q146 0 234.5 -114.5t88.5 -296.5q0 -71 -13.5 -141.5t-44 -139.5t-75 -122t-111.5 -85.5t-147 -32.5q-45 0 -90 11t-67 21l-23 11l45 97q63 -33 133 -33q109 0 179 90t89 223h-4q-32 -35 -87.5 -58.5t-106.5 -23.5q-129 0 -210 81t-81 210z
M193 1155q0 -86 51.5 -140t134.5 -54q76 0 135 43t59 94q0 93 -58 175.5t-146 82.5q-82 0 -129 -57t-47 -144z" />
    <glyph glyph-name="zero.denominator" 
d="M391 -20q-311 0 -311 466q0 465 311 465t311 -465q0 -466 -311 -466zM391 86q197 0 197 360q0 359 -197 359q-56 0 -95.5 -27t-60.5 -78t-30.5 -112.5t-9.5 -141.5q0 -81 9.5 -143t30.5 -112.5t60.5 -77.5t95.5 -27z" />
    <glyph glyph-name="one.denominator" 
d="M152 0v102h194v592l2 49h-2q-8 -16 -43 -51l-82 -78l-71 76l202 201h107v-789h190v-102h-497z" />
    <glyph glyph-name="two.denominator" 
d="M109 0q-7 40 -7 63q0 69 24.5 127t64 98.5t86.5 75.5t94.5 66t87 62t64 71t24.5 86q0 66 -47 112t-121 46q-48 0 -93.5 -25t-67.5 -50l-21 -25l-74 71q4 5 10.5 14t31 32t52.5 40.5t73 32t93 14.5q127 0 203 -73.5t76 -186.5q0 -61 -23.5 -112.5t-61.5 -87.5t-84 -68.5
t-92.5 -62t-85 -60t-64.5 -71t-28 -87.5h455v-102h-569z" />
    <glyph glyph-name="three.denominator" 
d="M379 -20q-55 0 -105.5 14t-82.5 33.5t-56.5 39.5t-35.5 34l-11 14l72 78q3 -4 9 -11.5t27 -26t44.5 -32.5t60.5 -25.5t76 -11.5q74 0 133 52.5t59 129.5q0 79 -60.5 125.5t-139.5 46.5h-68l-29 64l203 235q9 11 21.5 24t21.5 21l8 7v4q-38 -7 -75 -7h-316v103h539v-74
l-244 -282q47 -6 89.5 -23t81 -47.5t61 -81.5t22.5 -115q0 -120 -88 -204t-217 -84z" />
    <glyph glyph-name="four.denominator" 
d="M483 0v233h-434v78l434 580h113v-555h133v-103h-133v-233h-113zM188 336h295v278l6 127h-4q-32 -55 -65 -100l-232 -301v-4z" />
    <glyph glyph-name="five.denominator" 
d="M373 -20q-52 0 -99.5 14.5t-78.5 35t-55 41.5t-35 35l-11 15l78 72q3 -4 8 -11.5t23.5 -26t39.5 -32.5t55 -25.5t71 -11.5q85 0 145.5 56t60.5 139t-60 139.5t-148 56.5q-41 0 -81 -12.5t-60 -24.5l-19 -12l-68 27l49 436h447v-103h-352l-17 -159l-12 -76h4q51 25 123 25
q133 0 222 -87t89 -210q0 -124 -92 -212.5t-227 -88.5z" />
    <glyph glyph-name="six.denominator" 
d="M414 -20q-146 0 -235 114.5t-89 296.5q0 90 22.5 178.5t67.5 166.5t123 126.5t178 48.5q45 0 90.5 -10.5t68.5 -20.5l22 -10l-46 -98q-63 33 -133 33q-109 0 -179 -89.5t-89 -221.5h4q30 34 86.5 56.5t108.5 22.5q129 0 210 -79.5t81 -208.5q0 -141 -82.5 -223
t-208.5 -82zM414 86q82 0 129 57t47 142q0 87 -51.5 140.5t-135.5 53.5q-76 0 -135 -43t-59 -92q0 -93 58.5 -175.5t146.5 -82.5z" />
    <glyph glyph-name="seven.denominator" 
d="M133 0l356 672q16 29 33 58t26 44l9 14v5q-39 -5 -102 -5h-359v103h594v-76l-430 -815h-127z" />
    <glyph glyph-name="eight.denominator" 
d="M82 254q0 45 16.5 87t42.5 72.5t47 49t41 31.5q-108 74 -108 188q0 108 81.5 168.5t194.5 60.5q72 0 134.5 -25t104.5 -80t42 -130q0 -121 -117 -238q66 -38 101.5 -85t35.5 -117q0 -108 -88 -182t-215 -74q-81 0 -150.5 30t-116 94t-46.5 150zM584 238q0 32 -14 57.5
t-47 48t-57.5 35.5t-77.5 36t-75 34q-116 -82 -116 -191q0 -80 59 -128t139 -48q72 0 130.5 45t58.5 111zM233 678q0 -17 4 -32.5t13.5 -29.5t18 -24.5t26.5 -22.5t29.5 -19.5t35.5 -18.5l36 -16.5t40 -17t39 -16.5q90 90 90 191q0 65 -50.5 101t-119.5 36q-66 0 -114 -34
t-48 -97z" />
    <glyph glyph-name="nine.denominator" 
d="M78 608q0 139 83 221t208 82q146 0 234.5 -114.5t88.5 -296.5q0 -71 -13.5 -141.5t-44 -139.5t-75 -121.5t-111.5 -85t-147 -32.5q-45 0 -90 10.5t-67 21.5l-23 11l45 96q63 -33 133 -33q109 0 179 90t89 223h-4q-32 -35 -87.5 -58.5t-106.5 -23.5q-129 0 -210 81
t-81 210zM193 606q0 -86 51.5 -140t134.5 -54q76 0 135 43t59 94q0 93 -58 175.5t-146 82.5q-82 0 -129 -57t-47 -144z" />
    </font>
</defs>
</svg>
