<?xml version="1.0" standalone="no"?>
<!DOCTYPE svg PUBLIC "-//W3C//DTD SVG 1.1//EN" "http://www.w3.org/Graphics/SVG/1.1/DTD/svg11.dtd" >
<svg xmlns="http://www.w3.org/2000/svg" xmlns:xlink="http://www.w3.org/1999/xlink" version="1.1">
<metadata>
Created by FontForge 20170731 at Mon Mar 14 11:36:09 2022
 By Aleksey,,,
Copyright (c) 2008 by Jos Buivenga. All rights reserved.
</metadata>
<defs>
<font id="MuseoSans-700" horiz-adv-x="808" >
  <font-face 
    font-family="Museo Sans 700"
    font-weight="600"
    font-stretch="normal"
    units-per-em="2048"
    panose-1="2 0 0 0 0 0 0 0 0 0"
    ascent="1536"
    descent="-512"
    x-height="1044"
    cap-height="1454"
    bbox="-256 -430 2306 1847"
    underline-thickness="102"
    underline-position="-307"
    unicode-range="U+0020-FB04"
  />
<missing-glyph horiz-adv-x="1044" 
d="M10 0v1434h1024v-1434h-1024zM522 809l348 522h-696zM584 717l348 -522v1044zM113 195l348 522l-348 522v-1044zM174 102h696l-348 523z" />
    <glyph glyph-name="f_f" unicode="ff" horiz-adv-x="1421" 
d="M907 0v838h-450v-838h-260v838h-129v206h129v31q0 71 16.5 129t42.5 97.5t63.5 69.5t75 46.5t81 27t78 14t69.5 3.5q24 0 46 -1.5t32 -2.5l10 -2v-221q-23 4 -54 4q-200 0 -200 -170v-25h450v31q0 71 16.5 129t42.5 97.5t63.5 69.5t75 46.5t81 27t78 14t69.5 3.5
q24 0 46 -1.5t32 -2.5l10 -2v-221q-22 4 -53 4q-201 0 -201 -170v-25h224v-206h-224v-838h-260z" />
    <glyph glyph-name="fi" unicode="fi" horiz-adv-x="1257" 
d="M854 0v838h-397v-838h-260v838h-129v206h129v31q0 71 16.5 129t42.5 97.5t63.5 69.5t75 46.5t81 27t78 14t69.5 3.5q24 0 46 -1.5t32 -2.5l10 -2v-221q-23 4 -54 4q-200 0 -200 -170v-25h657v-1044h-260zM854 1223v231h258v-231h-258z" />
    <glyph glyph-name="fl" unicode="fl" horiz-adv-x="1292" 
d="M197 0v821h-129v207h129v47q0 71 16.5 129t42.5 97.5t63.5 69.5t75 46.5t81 27t78 14t69.5 3.5q24 0 46 -1.5t32 -2.5l10 -2v-221q-23 4 -54 4q-200 0 -200 -170v-41h223v-207h-223v-821h-260zM840 326v1128h258v-1089q0 -82 26 -113t80 -31l39 2v-227q-39 -6 -82 -6
q-49 0 -89 6t-85.5 26.5t-75.5 55.5t-50.5 98.5t-20.5 149.5z" />
    <glyph glyph-name="f_f_i" unicode="ffi" horiz-adv-x="1968" 
d="M907 0v838h-450v-838h-260v838h-129v206h129v31q0 71 16.5 129t42.5 97.5t63.5 69.5t75 46.5t81 27t78 14t69.5 3.5q24 0 46 -1.5t32 -2.5l10 -2v-221q-23 4 -54 4q-200 0 -200 -170v-25h450v31q0 71 16.5 129t42.5 97.5t63.5 69.5t75 46.5t81 27t78 14t69.5 3.5
q24 0 46 -1.5t32 -2.5l10 -2v-221q-22 4 -53 4q-201 0 -201 -170v-25h658v-1044h-260v838h-398v-838h-260zM1565 1223v231h258v-231h-258z" />
    <glyph glyph-name="f_f_l" unicode="ffl" horiz-adv-x="2002" 
d="M907 0v838h-450v-838h-260v838h-129v206h129v31q0 71 16.5 129t42.5 97.5t63.5 69.5t75 46.5t81 27t78 14t69.5 3.5q24 0 46 -1.5t32 -2.5l10 -2v-221q-23 4 -54 4q-200 0 -200 -170v-25h450v31q0 71 16.5 129t42.5 97.5t63.5 69.5t75 46.5t81 27t78 14t69.5 3.5
q24 0 46 -1.5t32 -2.5l10 -2v-221q-22 4 -53 4q-201 0 -201 -170v-25h224v-206h-224v-838h-260zM1550 326v1128h258v-1089q0 -82 26 -113t81 -31l39 2v-227q-39 -6 -82 -6q-49 0 -89 6t-85.5 26.5t-76 55.5t-51 98.5t-20.5 149.5z" />
    <glyph glyph-name="f_j" unicode="fj" horiz-adv-x="1257" 
d="M197 0v838h-129v206h129v31q0 71 16.5 129t42.5 97.5t63.5 69.5t75 46.5t81 27t78 14t69.5 3.5q24 0 46 -1.5t32 -2.5l10 -2v-221q-23 4 -54 4q-200 0 -200 -170v-25h657v-1075q0 -100 -32.5 -175t-79 -115t-110 -65t-113 -31.5t-101.5 -6.5q-22 0 -42 1.5t-29 2.5l-9 2
v219q18 -4 45 -4q26 0 50.5 3.5t55 15.5t53 32t37.5 56.5t15 85.5v848h-397v-838h-260zM854 1223v231h258v-231h-258z" />
    <glyph glyph-name=".notdef" horiz-adv-x="1044" 
d="M10 0v1434h1024v-1434h-1024zM522 809l348 522h-696zM584 717l348 -522v1044zM113 195l348 522l-348 522v-1044zM174 102h696l-348 523z" />
    <glyph glyph-name=".null" horiz-adv-x="0" 
 />
    <glyph glyph-name="nonmarkingreturn" horiz-adv-x="682" 
 />
    <glyph glyph-name="space" unicode=" " horiz-adv-x="497" 
 />
    <glyph glyph-name="exclam" unicode="!" horiz-adv-x="671" 
d="M223 420l-22 1034h270l-20 -1034h-228zM211 0v242h252v-242h-252z" />
    <glyph glyph-name="quotedbl" unicode="&#x22;" horiz-adv-x="749" 
d="M442 1053v428h193v-428h-193zM115 1053v428h192v-428h-192z" />
    <glyph glyph-name="numbersign" unicode="#" horiz-adv-x="1445" 
d="M252 0l65 383h-243l30 186h244l51 287h-239l30 188h242l72 410h209l-72 -410h279l71 410h209l-72 -410h248l-33 -188h-245l-51 -287h243l-30 -186h-246l-66 -383h-209l68 383h-281l-65 -383h-209zM557 569h281l51 287h-281z" />
    <glyph glyph-name="dollar" unicode="$" horiz-adv-x="1167" 
d="M92 174l144 199q6 -6 18 -16.5t50 -37t78 -47t99.5 -37t116.5 -16.5q89 0 150 45.5t61 130.5q0 39 -23.5 72.5t-63.5 59.5t-92 51t-109.5 50t-115 52.5t-109.5 64t-92 79.5t-63.5 103t-23.5 130q0 157 107 270t278 141v193h176v-188q67 -6 128.5 -23.5t101.5 -38.5
t71 -41t45 -34l14 -13l-114 -215q-6 5 -16.5 13.5t-44.5 30.5t-69.5 39t-88 30.5t-103.5 13.5q-93 0 -156 -49t-63 -125q0 -39 23.5 -71.5t63.5 -57.5t92 -48.5t109 -47.5t114 -51t109 -63.5t92 -80t63.5 -105.5t23.5 -135q0 -161 -106 -278t-289 -141v-189h-176v189
q-74 9 -143.5 32t-115.5 49.5t-82 51.5t-53 42z" />
    <glyph glyph-name="percent" unicode="%" horiz-adv-x="1622" 
d="M412 831q-138 0 -236 94.5t-98 229.5q0 132 98 228t236 96t237 -96t99 -228q0 -135 -99 -229.5t-237 -94.5zM129 0l1116 1454h240l-1116 -1454h-240zM412 1020q57 0 97 39t40 96q0 56 -40 95.5t-97 39.5t-96.5 -39.5t-39.5 -95.5q0 -57 39.5 -96t96.5 -39zM872 297
q0 133 97.5 228.5t236.5 95.5q138 0 236 -96t98 -228q0 -133 -98 -227.5t-236 -94.5q-139 0 -236.5 94t-97.5 228zM1071 299q0 -57 39 -96t96 -39t97 39t40 96q0 56 -40 95.5t-97 39.5t-96 -39.5t-39 -95.5z" />
    <glyph glyph-name="ampersand" unicode="&#x26;" horiz-adv-x="1406" 
d="M92 412q0 121 67.5 222t180.5 140v4q-7 3 -19.5 9.5t-44.5 32t-56 58t-44 91t-20 127.5q0 125 63 213t164.5 129t230.5 41q41 0 88.5 -6.5t75.5 -12.5l27 -6l-64 -209q-49 12 -96 12q-97 0 -160 -51t-63 -143q0 -34 10.5 -66t34 -61.5t69 -47.5t107.5 -18h231v189h261
v-189h188v-229h-188v-172q0 -225 -139.5 -359.5t-383.5 -134.5q-232 0 -376 124.5t-144 312.5zM362 428q0 -89 69.5 -150t180.5 -61q125 0 193.5 68t68.5 198v158h-245q-124 0 -195.5 -54.5t-71.5 -158.5z" />
    <glyph glyph-name="quotesingle" unicode="'" horiz-adv-x="425" 
d="M115 1053v428h196v-428h-196z" />
    <glyph glyph-name="parenleft" unicode="(" horiz-adv-x="634" 
d="M377 -195q-116 190 -180 420t-64 477q0 431 244 816h219q-231 -388 -231 -818q0 -470 231 -895h-219z" />
    <glyph glyph-name="parenright" unicode=")" horiz-adv-x="634" 
d="M258 -195h-219q231 430 231 895q0 430 -231 818h219q244 -385 244 -816q0 -247 -64 -477t-180 -420z" />
    <glyph glyph-name="asterisk" unicode="*" horiz-adv-x="944" 
d="M330 657l-187 136l170 204v4l-258 64l70 221l248 -100l-19 268h236l-19 -268l248 100l74 -219l-262 -66v-4l172 -202l-187 -138l-141 226h-4z" />
    <glyph glyph-name="plus" unicode="+" horiz-adv-x="1296" 
d="M100 483v203h443v485h211v-485h442v-203h-442v-483h-211v483h-443z" />
    <glyph glyph-name="comma" unicode="," horiz-adv-x="542" 
d="M35 -215l137 479h256l-197 -479h-196z" />
    <glyph glyph-name="hyphen" unicode="-" horiz-adv-x="935" 
d="M160 471v227h616v-227h-616z" />
    <glyph glyph-name="period" unicode="." horiz-adv-x="526" 
d="M133 0v260h260v-260h-260z" />
    <glyph glyph-name="slash" unicode="/" horiz-adv-x="839" 
d="M55 -86l520 1614h224l-523 -1614h-221z" />
    <glyph glyph-name="zero" unicode="0" horiz-adv-x="1288" 
d="M643 -25q-116 0 -207 38.5t-150 106t-97.5 164t-55 206t-16.5 239.5t16.5 239t55 205t97.5 162.5t150 105t207 38.5t207 -38.5t150.5 -105t98.5 -162.5t55.5 -205t16.5 -239t-16.5 -239.5t-55.5 -206t-98.5 -164t-150.5 -106t-207 -38.5zM643 217q256 0 256 512
q0 506 -256 506t-256 -506q0 -512 256 -512z" />
    <glyph glyph-name="one" unicode="1" horiz-adv-x="1048" 
d="M111 0v227h315v807l2 99h-4q-17 -35 -64 -82l-116 -111l-156 164l365 350h231v-1227h315v-227h-888z" />
    <glyph glyph-name="two" unicode="2" horiz-adv-x="1187" 
d="M115 0q-13 102 -13 129q0 106 37.5 198.5t97.5 158.5t132.5 124t145 107t132.5 95.5t97.5 101t37.5 112.5q0 93 -63 148t-158 55q-48 0 -92.5 -17.5t-74 -43t-52 -51t-32.5 -43.5l-11 -17l-197 131q3 6 8.5 16.5t26.5 40.5t45.5 57.5t66 61.5t88 58t111.5 40.5t136 16.5
q200 0 336.5 -116t136.5 -314q0 -95 -36 -177.5t-93.5 -142.5t-127.5 -113t-140 -98.5t-128 -89t-95 -95t-38 -106.5h680v-227h-964z" />
    <glyph glyph-name="three" unicode="3" horiz-adv-x="1175" 
d="M72 170l135 203l16 -16t44 -35.5t70.5 -45t91 -35.5t108.5 -16q114 0 188 61.5t74 155.5q0 110 -88 168t-224 58h-100l-59 135l266 315q25 30 51 58t39 40l14 13v4q-43 -6 -129 -6h-434v227h889v-166l-356 -411q77 -11 147 -43.5t126.5 -84t90 -128.5t33.5 -168
q0 -94 -35 -179.5t-99 -152.5t-162 -106.5t-216 -39.5q-87 0 -168 20t-135.5 48.5t-96.5 57.5t-61 49z" />
    <glyph glyph-name="four" unicode="4" horiz-adv-x="1271" 
d="M57 375v162l627 917h313v-860h189v-219h-189v-375h-260v375h-680zM336 594h401v450q0 32 2.5 70t5.5 60l3 22h-5q-32 -78 -71 -133l-336 -465v-4z" />
    <glyph glyph-name="five" unicode="5" horiz-adv-x="1165" 
d="M88 172l135 199q5 -6 14 -16t40.5 -35t65 -44t85 -35t104.5 -16q111 0 193 68.5t82 179.5q0 112 -83.5 182t-209.5 70q-57 0 -113.5 -15.5t-84.5 -30.5l-27 -15l-146 53l68 737h764v-227h-537l-22 -240l-10 -67h4q67 32 155 32q234 0 373 -137t139 -340
q0 -216 -148.5 -358t-375.5 -142q-63 0 -122.5 11t-104.5 28t-85 38t-67 42.5t-47 38.5t-29 28z" />
    <glyph glyph-name="six" unicode="6" horiz-adv-x="1236" 
d="M670 -25q-114 0 -215.5 47t-178.5 133.5t-122 218.5t-45 292q0 116 25.5 230.5t80.5 220t132 186t188.5 128.5t242.5 48q82 0 156 -15.5t108 -31.5l33 -15l-78 -227q-91 45 -204 45q-83 0 -151.5 -32.5t-114.5 -88t-76.5 -123t-44.5 -145.5h4q38 44 116 73t156 29
q139 0 247 -67t164 -176.5t56 -241.5q0 -101 -34.5 -190t-96 -155t-152 -104.5t-196.5 -38.5zM670 217q99 0 158 70t59 176q0 116 -70 192t-196 76q-99 0 -168.5 -45.5t-69.5 -112.5q0 -138 86.5 -247t200.5 -109z" />
    <glyph glyph-name="seven" unicode="7" horiz-adv-x="1114" 
d="M160 0l545 1094q20 40 42 73t34 47l12 13v4q-29 -4 -101 -4h-620v227h999v-184l-637 -1270h-274z" />
    <glyph glyph-name="eight" unicode="8" horiz-adv-x="1251" 
d="M104 422q0 58 19 115.5t45 97t60 76.5t55.5 55t40.5 31q-150 116 -150 284q0 77 29 147t84.5 127t147 90.5t206.5 33.5q207 0 339 -109.5t132 -294.5q0 -173 -162 -358q88 -57 137.5 -130.5t49.5 -178.5q0 -84 -35 -161.5t-98.5 -138.5t-162 -97t-216.5 -36
q-232 0 -376.5 128t-144.5 319zM868 420q0 31 -16 59t-36.5 47.5t-62 44t-71 38.5t-86.5 39.5t-86 39.5q-135 -112 -135 -246q0 -101 74 -167t176 -66q104 0 173.5 58t69.5 153zM434 1075q0 -30 10 -56t32 -49t44 -40t60 -37t66 -32.5t75 -32.5q8 -3 12.5 -5t11 -5t11.5 -5
q98 113 98 246q0 84 -59 134t-158 50q-96 0 -149.5 -47.5t-53.5 -120.5z" />
    <glyph glyph-name="nine" unicode="9" horiz-adv-x="1236" 
d="M459 -25q-82 0 -156 15.5t-107 31.5l-34 15l78 227q10 -5 28.5 -13t71.5 -21t102 -13q83 0 151.5 32.5t115.5 88t77.5 123t44.5 145.5h-4q-38 -44 -116.5 -73t-157.5 -29q-139 0 -246.5 67.5t-163 177.5t-55.5 242q0 134 58.5 245t169 177t251.5 66q114 0 215.5 -47
t178.5 -133.5t122 -218.5t45 -292q0 -116 -25.5 -230.5t-80.5 -220t-132 -186t-188.5 -128.5t-242.5 -48zM616 721q99 0 168.5 46t69.5 112q0 138 -87 247t-200 109q-99 0 -159 -69.5t-60 -174.5q0 -116 70.5 -193t197.5 -77z" />
    <glyph glyph-name="colon" unicode=":" horiz-adv-x="589" 
d="M166 784v260h258v-260h-258zM166 0v260h258v-260h-258z" />
    <glyph glyph-name="semicolon" unicode=";" horiz-adv-x="598" 
d="M63 -215l119 479h256l-176 -479h-199zM184 784v260h258v-260h-258z" />
    <glyph glyph-name="less" unicode="&#x3c;" horiz-adv-x="1138" 
d="M51 502v168l985 438v-227l-710 -293v-4l710 -293v-228z" />
    <glyph glyph-name="equal" unicode="=" horiz-adv-x="1335" 
d="M168 694v201h999v-201h-999zM168 274v201h999v-201h-999z" />
    <glyph glyph-name="greater" unicode="&#x3e;" horiz-adv-x="1138" 
d="M102 63v228l711 293v4l-711 293v227l985 -438v-168z" />
    <glyph glyph-name="question" unicode="?" horiz-adv-x="997" 
d="M272 420v98q0 82 35 150t84.5 114t99 88.5t84.5 93.5t35 109q0 72 -56.5 121t-141.5 49q-52 0 -107 -21.5t-83 -43.5l-29 -21l-144 178q6 6 17 16t48.5 35.5t79 45t107 35.5t133.5 16q87 0 167.5 -26.5t142.5 -74.5t99.5 -122t37.5 -162q0 -69 -19.5 -127.5t-51 -100.5
t-70 -79t-76.5 -69.5t-69.5 -65t-51 -72t-19.5 -84.5v-80h-252zM272 0v242h252v-242h-252z" />
    <glyph glyph-name="at" unicode="@" horiz-adv-x="1708" 
d="M104 492q0 157 60 298.5t162 243.5t245 161.5t303 59.5q122 0 219 -24t160.5 -65t106 -98.5t60.5 -121.5t18 -137v-512h149v-186h-567q-100 0 -184.5 32t-139.5 85t-85.5 121.5t-30.5 142.5q0 154 119 264t321 110h174q-3 79 -90 130t-221 51q-145 0 -266 -78t-189 -205
t-68 -272q0 -150 66.5 -274.5t194.5 -199.5t294 -75v-203q-179 0 -331.5 58.5t-257 159.5t-163.5 239.5t-59 294.5zM838 498q0 -85 55 -143t143 -58h158v401h-154q-90 0 -146 -58t-56 -142z" />
    <glyph glyph-name="A" unicode="A" horiz-adv-x="1304" 
d="M1030 0l-123 373h-510l-123 -373h-272l512 1454h277l512 -1454h-273zM655 1202h-4q-32 -143 -61 -225l-129 -389h381l-129 389q-12 36 -26.5 92.5t-22.5 94.5z" />
    <glyph glyph-name="B" unicode="B" horiz-adv-x="1314" 
d="M184 0v1454h521q201 0 324.5 -99.5t123.5 -275.5q0 -102 -46.5 -184.5t-129.5 -126.5v-4q114 -34 174.5 -129t60.5 -213q0 -85 -26.5 -155.5t-72.5 -119t-110 -82.5t-137 -49.5t-155 -15.5h-527zM449 860h256q84 0 132 53t48 134t-48 130.5t-137 49.5h-251v-367zM449 227
h282q99 0 155 58.5t56 152.5q0 93 -56.5 151t-154.5 58h-282v-420z" />
    <glyph glyph-name="C" unicode="C" horiz-adv-x="1466" 
d="M84 733q0 156 57 294t155.5 237.5t237.5 157t297 57.5q99 0 191 -20.5t152 -49.5t106 -58.5t67 -50.5l21 -20l-127 -197q-7 6 -19.5 16.5t-53.5 37t-84.5 47t-109 37t-130.5 16.5q-149 0 -261.5 -69t-169.5 -181.5t-57 -249.5q0 -139 58 -256.5t171.5 -190.5t260.5 -73
q71 0 140 19t118 46t87.5 54t57.5 46l19 19l139 -190q-8 -10 -24 -25.5t-70.5 -56.5t-115.5 -72t-159 -56.5t-202 -25.5q-218 0 -390.5 100t-267 272.5t-94.5 385.5z" />
    <glyph glyph-name="D" unicode="D" horiz-adv-x="1513" 
d="M184 0v1454h496q340 0 540.5 -192t200.5 -533t-200.5 -535t-540.5 -194h-496zM449 227h217q225 0 354 130t129 372q0 239 -130 368.5t-353 129.5h-217v-1000z" />
    <glyph glyph-name="E" unicode="E" horiz-adv-x="1177" 
d="M184 0v1454h871v-227h-606v-381h489v-228h-489v-391h638v-227h-903z" />
    <glyph glyph-name="F" unicode="F" horiz-adv-x="1083" 
d="M184 0v1454h836v-227h-571v-412h481v-227h-481v-588h-265z" />
    <glyph glyph-name="G" unicode="G" horiz-adv-x="1556" 
d="M86 729q0 156 57 295t155.5 239t238.5 158t299 58q100 0 192 -19t152.5 -46t107 -54.5t67.5 -46.5l21 -19l-131 -196q-6 6 -18 15t-51.5 33t-81.5 42.5t-106.5 33.5t-129.5 15q-158 0 -273 -68.5t-171 -180.5t-56 -251q0 -232 140 -376t348 -144q61 0 121 15.5t102 38
t75.5 45t49.5 38.5l16 15v170h-223v227h461v-766h-225v70l2 61h-4q-6 -6 -18 -16.5t-52.5 -37.5t-86 -47.5t-117.5 -37.5t-148 -17q-143 0 -273 54.5t-227.5 150.5t-155 239t-57.5 310z" />
    <glyph glyph-name="H" unicode="H" horiz-adv-x="1562" 
d="M184 0v1454h265v-616h665v616h264v-1454h-264v610h-665v-610h-265z" />
    <glyph glyph-name="I" unicode="I" horiz-adv-x="632" 
d="M184 0v1454h265v-1454h-265z" />
    <glyph glyph-name="J" unicode="J" horiz-adv-x="1120" 
d="M49 430v84h262v-68q0 -120 55 -174.5t138 -54.5q81 0 133.5 53t52.5 164v793h-375v227h639v-1024q0 -114 -39 -204t-104.5 -143t-144.5 -80.5t-166 -27.5q-68 0 -132.5 17t-122.5 53.5t-101.5 89t-69 128.5t-25.5 167z" />
    <glyph glyph-name="K" unicode="K" horiz-adv-x="1325" 
d="M184 0v1454h265v-592h188l342 592h287l-412 -692v-4l436 -758h-297l-356 635h-188v-635h-265z" />
    <glyph glyph-name="L" unicode="L" horiz-adv-x="1103" 
d="M184 0v1454h265v-1227h628v-227h-893z" />
    <glyph glyph-name="M" unicode="M" horiz-adv-x="1798" 
d="M139 0l119 1454h283l284 -719l74 -213h4q39 127 72 213l285 719h282l117 -1454h-262l-62 813q-3 43 -3.5 99t0.5 91l1 35h-4q-43 -141 -78 -225l-235 -563h-232l-233 563q-16 37 -36 94t-32 95l-12 38h-4q4 -131 -2 -227l-62 -813h-264z" />
    <glyph glyph-name="N" unicode="N" horiz-adv-x="1556" 
d="M184 0v1454h265l550 -840q24 -37 54.5 -93.5t48.5 -94.5l18 -37h4q-14 139 -14 225v840h262v-1454h-262l-551 838q-24 37 -54.5 93.5t-48.5 94.5l-18 37h-4q15 -139 15 -225v-838h-265z" />
    <glyph glyph-name="O" unicode="O" horiz-adv-x="1671" 
d="M84 737q0 154 58 291t157.5 236t239 157t297.5 58t297.5 -58t239 -157t157 -236t57.5 -291q0 -158 -57.5 -299t-157 -242.5t-239 -161t-297.5 -59.5t-297.5 59.5t-239 161t-157.5 242.5t-58 299zM356 737q0 -222 139.5 -371t340.5 -149t340 149t139 371q0 141 -64 256
t-173.5 179.5t-241.5 64.5q-98 0 -187 -38t-153 -104t-102 -159t-38 -199z" />
    <glyph glyph-name="P" unicode="P" horiz-adv-x="1257" 
d="M184 0v1454h561q205 0 334 -131t129 -342q0 -212 -129.5 -345.5t-333.5 -133.5h-296v-502h-265zM449 731h247q114 0 179 67.5t65 182.5q0 113 -64 179.5t-176 66.5h-251v-496z" />
    <glyph glyph-name="Q" unicode="Q" horiz-adv-x="1691" 
d="M84 735q0 154 57.5 292t157 237t239 157t296.5 58q211 0 384 -98.5t271 -269t98 -376.5q0 -249 -160 -461l164 -147l-151 -168l-162 160q-189 -144 -444 -144q-209 0 -381.5 101t-270.5 275.5t-98 383.5zM356 735q0 -221 138.5 -369.5t339.5 -148.5q140 0 253 76
l-161 153l151 166l158 -157q80 131 80 280q0 215 -138.5 358.5t-342.5 143.5q-201 0 -339.5 -143.5t-138.5 -358.5z" />
    <glyph glyph-name="R" unicode="R" horiz-adv-x="1347" 
d="M184 0v1454h469q116 0 180.5 -9.5t112.5 -31.5q111 -51 174.5 -153t63.5 -244q0 -133 -66.5 -243t-179.5 -155v-4q20 -20 49 -71l299 -543h-295l-289 543h-253v-543h-265zM449 772h237q106 0 167.5 60.5t61.5 168.5q0 112 -59.5 169t-206.5 57h-200v-455z" />
    <glyph glyph-name="S" unicode="S" horiz-adv-x="1134" 
d="M74 174l143 199q6 -6 18 -16.5t50.5 -37t78.5 -47t99.5 -37t116.5 -16.5q89 0 150 45.5t61 130.5q0 52 -38 94.5t-98.5 73t-133.5 61t-146.5 68t-134 84t-98.5 118.5t-38 163q0 181 139.5 301.5t348.5 120.5q80 0 154.5 -16t123 -39t85.5 -46t54 -39l17 -16l-115 -215
q-6 5 -16.5 13.5t-44 30.5t-69 39t-88 30.5t-103.5 13.5q-93 0 -156 -49t-63 -125q0 -41 23.5 -75t63 -59t91 -48t108 -46.5t113 -49.5t108 -61.5t91 -79t63 -105.5t23.5 -136q0 -180 -130 -303t-350 -123q-91 0 -176 20.5t-141.5 49.5t-100 58.5t-63.5 50.5z" />
    <glyph glyph-name="T" unicode="T" horiz-adv-x="1234" 
d="M485 0v1227h-477v227h1219v-227h-477v-1227h-265z" />
    <glyph glyph-name="U" unicode="U" horiz-adv-x="1501" 
d="M164 522v932h264v-932q0 -144 87 -224.5t235 -80.5q149 0 236 80.5t87 226.5v930h264v-932q0 -245 -161.5 -396t-423.5 -151q-264 0 -426 151t-162 396z" />
    <glyph glyph-name="V" unicode="V" horiz-adv-x="1318" 
d="M528 0l-530 1454h285l319 -948q13 -37 26 -90.5t20.5 -88t8.5 -34.5h5q1 0 8.5 34.5t20.5 88t26 90.5l321 948h283l-530 -1454h-263z" />
    <glyph glyph-name="W" unicode="W" horiz-adv-x="1978" 
d="M1102 1454l258 -1005q10 -37 16 -76t8 -59l2 -19h5q6 72 24 154l240 1005h272l-375 -1454h-305l-223 860q-11 42 -20.5 89.5t-13.5 74.5l-3 27h-4q-12 -97 -37 -191l-223 -860h-305l-365 1454h273l229 -1005q8 -36 14 -74.5t9 -58.5l2 -21h4l2 19q2 20 8 59t16 76
l262 1005h230z" />
    <glyph glyph-name="X" unicode="X" horiz-adv-x="1296" 
d="M35 0l452 737l-434 717h301l199 -356q21 -37 44 -81.5t35 -70.5l13 -26h4q41 92 88 178l203 356h303l-438 -717l455 -737h-297l-226 391l-90 172h-4q-41 -88 -90 -172l-223 -391h-295z" />
    <glyph glyph-name="Y" unicode="Y" horiz-adv-x="1239" 
d="M487 0v608l-483 846h299l227 -428q20 -39 42 -89t33.5 -78.5t12.5 -27.5h5q41 105 88 195l225 428h299l-483 -846v-608h-265z" />
    <glyph glyph-name="Z" unicode="Z" horiz-adv-x="1257" 
d="M78 0v170l645 926q25 37 51.5 70t40.5 47l14 14v4q-40 -4 -108 -4h-610v227h1050v-168l-645 -928q-25 -37 -51.5 -70t-40.5 -47l-14 -14v-4q40 4 108 4h651v-227h-1091z" />
    <glyph glyph-name="bracketleft" unicode="[" horiz-adv-x="649" 
d="M190 -195v1713h404v-189h-182v-1335h182v-189h-404z" />
    <glyph glyph-name="backslash" unicode="\" horiz-adv-x="841" 
d="M563 -86l-522 1614h223l522 -1614h-223z" />
    <glyph glyph-name="bracketright" unicode="]" horiz-adv-x="649" 
d="M55 -6h183v1335h-183v189h404v-1713h-404v189z" />
    <glyph glyph-name="asciicircum" unicode="^" horiz-adv-x="1267" 
d="M133 502l412 952h164l411 -952h-225l-268 678l-269 -678h-225z" />
    <glyph glyph-name="underscore" unicode="_" horiz-adv-x="1230" 
d="M41 0h1149v-201h-1149v201z" />
    <glyph glyph-name="grave" unicode="`" horiz-adv-x="1009" 
d="M506 1550l-213 279h268l156 -279h-211z" />
    <glyph glyph-name="a" unicode="a" horiz-adv-x="1093" 
d="M55 301q0 68 26 124t66.5 92t98.5 62.5t112.5 40.5t119.5 22.5t107.5 10.5t88.5 2h35v15q0 184 -201 184q-67 0 -138.5 -25t-109.5 -50l-39 -25l-98 186q7 5 19 14t53.5 31t86 39t113 31t137.5 14q206 0 320.5 -109t114.5 -307v-653h-240v86l4 74h-4q2 0 -8.5 -19
t-34.5 -46t-58.5 -54.5t-91.5 -46.5t-124 -19q-147 0 -251 88t-104 238zM317 313q0 -56 41.5 -95.5t116.5 -39.5q98 0 167 87t69 188v24h-45q-349 0 -349 -164z" />
    <glyph glyph-name="b" unicode="b" horiz-adv-x="1251" 
d="M143 0v1454h260v-448l-4 -88h4q4 6 11.5 16.5t35.5 36.5t61 45.5t88.5 36t117.5 16.5q211 0 337 -151t126 -396q0 -246 -135 -396.5t-345 -150.5q-61 0 -115.5 16t-88.5 39t-59.5 46t-36.5 39l-11 16h-4q4 -31 4 -72v-59h-246zM395 516q0 -131 68.5 -226t191.5 -95
q112 0 187.5 86.5t75.5 236.5q0 148 -72.5 238t-188.5 90q-111 0 -186.5 -83.5t-75.5 -246.5z" />
    <glyph glyph-name="c" unicode="c" horiz-adv-x="1116" 
d="M68 522q0 149 68.5 273t199.5 199t299 75q76 0 145.5 -16t114 -39t78 -46t48.5 -39l15 -16l-114 -178q-4 5 -12.5 12.5t-36 27t-57.5 34.5t-75.5 27t-91.5 12q-142 0 -229.5 -93.5t-87.5 -230.5q0 -136 90 -231.5t235 -95.5q49 0 99 13.5t86 33.5t65 39.5t43 32.5l15 14
l100 -185q-6 -7 -18 -18.5t-52.5 -40.5t-86.5 -51.5t-120 -41t-153 -18.5q-127 0 -234 43t-179.5 117t-113 174t-40.5 213z" />
    <glyph glyph-name="d" unicode="d" horiz-adv-x="1251" 
d="M72 522q0 247 132 397t341 150q64 0 118.5 -13.5t87 -33t55 -39.5t31.5 -33l9 -14h4q-2 26 -2 59v459h260v-1454h-246v86l4 68h-4q-4 -7 -11 -19t-35 -43t-62 -54.5t-93 -43t-126 -19.5q-211 0 -337 151t-126 396zM334 522q0 -148 72 -237.5t188 -89.5q111 0 186.5 83
t75.5 246q0 84 -28 155.5t-88.5 119t-143.5 47.5q-112 0 -187 -87t-75 -237z" />
    <glyph glyph-name="e" unicode="e" horiz-adv-x="1134" 
d="M70 522q0 241 148.5 394t381.5 153q146 0 252.5 -67t158.5 -178t52 -251l-6 -100h-721q12 -131 101 -203.5t212 -72.5q47 0 95.5 11.5t83.5 28.5t64 34t44 29l14 11l101 -186q-7 -6 -19 -16t-53.5 -36t-87 -46t-116.5 -36t-144 -16q-168 0 -297.5 75t-196.5 199t-67 273z
M344 651h457q-3 103 -60.5 160t-146.5 57q-99 0 -165 -57.5t-85 -159.5z" />
    <glyph glyph-name="f" unicode="f" horiz-adv-x="710" 
d="M197 0v821h-129v207h129v47q0 71 16.5 129t42.5 97.5t63.5 69.5t75 46.5t81 27t78 14t69.5 3.5q24 0 46 -1.5t32 -2.5l10 -2v-221q-23 4 -54 4q-200 0 -200 -170v-41h223v-207h-223v-821h-260z" />
    <glyph glyph-name="g" unicode="g" horiz-adv-x="1236" 
d="M250 -141q15 -8 41 -19t102 -30t146 -19q131 0 213 61.5t82 192.5v61l4 56h-4q-94 -142 -291 -142q-145 0 -253 73t-162 191.5t-54 264.5t52 262t158.5 187t252.5 71q64 0 119 -13.5t88.5 -33t57.5 -39.5t34 -33l10 -14h6q-2 13 -2 29v79h244v-981q0 -104 -31.5 -188.5
t-84 -140t-124 -93.5t-149.5 -54.5t-162 -16.5q-96 0 -195 24.5t-176 65.5zM598 240q50 0 91 15.5t76 49t55 95.5t20 147q0 86 -20 147t-57 93.5t-81 46.5t-100 14q-117 0 -181.5 -78.5t-64.5 -212.5q0 -140 69.5 -228.5t192.5 -88.5z" />
    <glyph glyph-name="h" unicode="h" horiz-adv-x="1255" 
d="M143 0v1454h260v-504l-4 -88h4q43 84 138.5 145.5t222.5 61.5q362 0 362 -397v-672h-258v618q0 104 -36 158.5t-130 54.5q-101 0 -176.5 -60t-105.5 -157q-17 -58 -17 -135v-479h-260z" />
    <glyph glyph-name="i" unicode="i" horiz-adv-x="546" 
d="M143 1223v231h258v-231h-258zM143 0v1044h260v-1044h-260z" />
    <glyph glyph-name="j" unicode="j" horiz-adv-x="546" 
d="M143 1223v231h258v-231h-258zM143 1044h260v-1075q0 -100 -32.5 -175t-79 -115t-110 -65t-113 -31.5t-101.5 -6.5q-22 0 -42 1.5t-29 2.5l-9 2v219q18 -4 45 -4q26 0 50.5 3.5t55 15.5t53 32t37.5 56.5t15 85.5v1054z" />
    <glyph glyph-name="k" unicode="k" horiz-adv-x="1130" 
d="M143 0v1454h260v-778h129l252 368h289l-330 -466v-5l371 -573h-299l-276 457h-136v-457h-260z" />
    <glyph glyph-name="l" unicode="l" horiz-adv-x="581" 
d="M129 326v1128h258v-1089q0 -82 26 -113t81 -31l38 2v-227q-38 -6 -81 -6q-49 0 -89 6t-85.5 26.5t-76 55.5t-51 98.5t-20.5 149.5z" />
    <glyph glyph-name="m" unicode="m" horiz-adv-x="1869" 
d="M143 0v1044h250v-120l-4 -72h4q43 87 134.5 152t205.5 65q239 0 305 -215h4q45 90 142.5 152.5t214.5 62.5q342 0 342 -397v-672h-260v623q0 101 -30 154.5t-114 53.5q-95 0 -161 -66.5t-91 -170.5q-12 -49 -12 -135v-459h-260v623q0 38 -3 65.5t-11.5 56t-23.5 46.5
t-41 29t-62 11q-97 0 -163.5 -66.5t-92.5 -172.5q-13 -51 -13 -133v-459h-260z" />
    <glyph glyph-name="n" unicode="n" horiz-adv-x="1255" 
d="M143 0v1044h250v-120l-4 -72h4q15 29 35.5 56.5t54 57.5t72.5 52t93.5 36.5t115.5 14.5q362 0 362 -397v-672h-258v618q0 104 -36 158.5t-130 54.5q-102 0 -176 -58.5t-104 -154.5q-19 -58 -19 -139v-479h-260z" />
    <glyph glyph-name="o" unicode="o" horiz-adv-x="1280" 
d="M66 522q0 156 77 282t208 195.5t288 69.5q158 0 289.5 -69.5t208.5 -195.5t77 -282q0 -157 -77 -283t-207.5 -195t-288.5 -69q-159 0 -290 69t-208 194.5t-77 283.5zM330 522q0 -143 90.5 -234t220.5 -91q129 0 219 91t90 234q0 142 -90 234t-219 92q-130 0 -220.5 -92
t-90.5 -234z" />
    <glyph glyph-name="p" unicode="p" horiz-adv-x="1251" 
d="M143 -410v1454h238v-75l-4 -72h4q4 7 11.5 18.5t36 41t63.5 52.5t95.5 41.5t129.5 18.5q211 0 337 -151t126 -396q0 -246 -135 -396.5t-343 -150.5q-58 0 -110 15t-85 36t-58 42t-35 36l-11 15h-4q4 -37 4 -90v-439h-260zM395 516q0 -131 69 -226t191 -95
q112 0 187.5 86.5t75.5 236.5q0 148 -72.5 238t-188.5 90q-111 0 -186.5 -83.5t-75.5 -246.5z" />
    <glyph glyph-name="q" unicode="q" horiz-adv-x="1251" 
d="M72 522q0 247 132 397t341 150q64 0 120.5 -15.5t91 -37.5t59.5 -44.5t36 -37.5l10 -16h4q-4 26 -4 67v59h246v-1454h-260v451l4 90h-4l-11 -16.5t-34.5 -37.5t-60 -47.5t-88.5 -37.5t-119 -17q-211 0 -337 151t-126 396zM334 522q0 -148 72 -237.5t188 -89.5
q111 0 186.5 83t75.5 246q0 84 -28 155.5t-88.5 119t-143.5 47.5q-112 0 -187 -87t-75 -237z" />
    <glyph glyph-name="r" unicode="r" horiz-adv-x="804" 
d="M143 0v1044h250v-180l-4 -73h4q37 117 126.5 192.5t205.5 75.5l47 -4v-256q-26 4 -61 4q-59 0 -112.5 -21.5t-101.5 -72.5t-71 -125q-23 -73 -23 -170v-414h-260z" />
    <glyph glyph-name="s" unicode="s" horiz-adv-x="925" 
d="M55 129l119 182q5 -5 13.5 -12.5t37.5 -27t60 -34.5t78.5 -27.5t95.5 -12.5q58 0 97.5 25t39.5 69q0 31 -28 57t-73 46t-99 41.5t-108 49.5t-99 63.5t-73 90.5t-28 123q0 142 112.5 224.5t286.5 82.5q66 0 126.5 -12.5t99.5 -29.5t68.5 -34.5t42.5 -30.5l14 -12l-97 -192
q-4 4 -11.5 10t-32.5 21.5t-53 27.5t-71 21.5t-88 9.5q-56 0 -94.5 -24t-38.5 -70q0 -29 28 -54t73 -44.5t99 -40t108 -49t99 -63.5t73 -90.5t28 -123.5q0 -134 -109 -224t-290 -90q-73 0 -141.5 16t-114.5 38.5t-81.5 45t-51.5 38.5z" />
    <glyph glyph-name="t" unicode="t" horiz-adv-x="772" 
d="M188 383v438h-135v207h142v301h254v-301h237v-207h-237v-405q0 -49 15 -86t36.5 -57.5t51 -33.5t54 -16.5t49.5 -3.5l47 4v-227q-30 -6 -79 -6q-36 0 -70.5 3t-79 13.5t-83 27.5t-77 47.5t-65 70.5t-43.5 99.5t-17 131.5z" />
    <glyph glyph-name="u" unicode="u" horiz-adv-x="1247" 
d="M129 373v671h260v-618q0 -104 35.5 -158.5t126.5 -54.5q135 0 214 102.5t79 249.5v479h260v-1044h-250v119l4 74h-4q-42 -89 -139 -153.5t-223 -64.5q-363 0 -363 398z" />
    <glyph glyph-name="v" unicode="v" horiz-adv-x="1062" 
d="M379 0l-379 1044h274l218 -647q9 -27 17.5 -66.5t13 -65t5.5 -25.5h4q1 0 6 25.5t13.5 65t17.5 66.5l217 647h275l-375 -1044h-307z" />
    <glyph glyph-name="w" unicode="w" horiz-adv-x="1681" 
d="M348 0l-319 1044h274l182 -686q6 -24 11.5 -51.5t7.5 -42.5l2 -16h4q11 55 25 110l192 684h231l193 -684l23 -110h4q8 55 22 110l182 686h271l-318 -1044h-288l-177 596l-26 113h-4q-9 -58 -25 -113l-176 -596h-291z" />
    <glyph glyph-name="x" unicode="x" horiz-adv-x="1073" 
d="M539 358h-4q-15 -32 -29 -55l-182 -303h-289l344 528l-336 516h295l162 -284l35 -66h4q18 39 34 66l162 284h295l-336 -516l344 -528h-288l-183 303z" />
    <glyph glyph-name="y" unicode="y" horiz-adv-x="1067" 
d="M2 -362l86 194q58 -43 117 -43q56 0 104 34t76 101l39 92l-440 1028h292l220 -602q9 -24 18.5 -59.5t15.5 -58.5l5 -23h4q16 82 34 137l205 606h285l-467 -1202q-53 -137 -152.5 -204.5t-224.5 -67.5q-56 0 -110 17t-81 34z" />
    <glyph glyph-name="z" unicode="z" horiz-adv-x="1073" 
d="M72 0v139l469 588q21 26 43 50t34 35l11 11v4q-31 -4 -97 -4h-440v221h889v-141l-469 -588q-21 -26 -43.5 -50t-34.5 -35l-12 -11v-4q30 6 98 6h475v-221h-923z" />
    <glyph glyph-name="braceleft" unicode="{" horiz-adv-x="747" 
d="M262 145v199q0 57 -18 100.5t-43.5 63.5t-51 32.5t-43.5 14.5l-18 2v227q7 0 19 2t42 14.5t52.5 33.5t41.5 64.5t19 102.5v177q0 89 27.5 155t66 101.5t92 57t94 27t83.5 5.5l63 -2v-193q-17 2 -37 2t-39 -3t-43.5 -13.5t-42.5 -28.5t-30.5 -51.5t-12.5 -77.5v-223
q0 -57 -17.5 -105t-42 -75.5t-49 -46.5t-42.5 -26l-17 -7v-4q7 -2 18 -6.5t40 -24t51.5 -45.5t40.5 -74.5t18 -107.5v-246q0 -45 12.5 -78.5t30.5 -51t42.5 -28.5t43.5 -13.5t39 -2.5l37 2v-193q-26 -4 -63 -4q-43 0 -83.5 5.5t-94 27t-92 57t-66 102.5t-27.5 156z" />
    <glyph glyph-name="bar" unicode="|" horiz-adv-x="593" 
d="M186 -330v1960h222v-1960h-222z" />
    <glyph glyph-name="braceright" unicode="}" horiz-adv-x="747" 
d="M59 -6q17 -2 37 -2t38.5 2.5t43 13.5t42 28.5t30 51t12.5 78.5v246q0 59 17.5 107.5t42.5 75t50 45t42 24.5l18 6v4q-7 2 -18.5 7t-40.5 25.5t-51.5 47t-41 75t-18.5 105.5v223q0 55 -17.5 92.5t-46 53.5t-52.5 22t-50 6l-37 -2v193q27 2 64 2q29 0 57 -2.5t65.5 -11.5
t69.5 -24t64 -41.5t55 -61.5t37 -88t14 -117v-177q0 -59 18 -102.5t43.5 -64.5t51 -33.5t43.5 -14.5l18 -2v-227q-7 0 -19 -2t-42 -14.5t-52.5 -32.5t-41.5 -63.5t-19 -100.5v-199q0 -75 -18 -134t-50 -95.5t-68.5 -61.5t-80.5 -36.5t-77 -16t-68 -4.5l-64 4v193z" />
    <glyph glyph-name="asciitilde" unicode="~" horiz-adv-x="1249" 
d="M115 408q0 186 81 279t234 93q57 0 104 -19t79 -46.5t60.5 -55t62.5 -46.5t71 -19q63 0 95 51t32 127h205q0 -187 -80.5 -280t-233.5 -93q-57 0 -104 19t-78.5 46.5t-60 54.5t-62.5 46t-71 19q-64 0 -95.5 -50.5t-31.5 -125.5h-207z" />
    <glyph glyph-name="uni00A0" unicode="&#xa0;" horiz-adv-x="497" 
 />
    <glyph glyph-name="exclamdown" unicode="&#xa1;" horiz-adv-x="624" 
d="M186 801v241h250v-241h-250zM176 -410l23 1033h227l20 -1033h-270z" />
    <glyph glyph-name="cent" unicode="&#xa2;" horiz-adv-x="1179" 
d="M526 -25v177q-194 32 -314 192.5t-120 382.5t120 383t314 195v172h176v-172q135 -25 237.5 -112.5t152.5 -219.5l-234 -90q-33 82 -93 132t-144 50q-118 0 -192.5 -95t-74.5 -243q0 -154 72 -246t195 -92q83 0 143.5 50t93.5 132l234 -90q-32 -79 -82.5 -145.5t-132 -119
t-175.5 -64.5v-177h-176z" />
    <glyph glyph-name="sterling" unicode="&#xa3;" horiz-adv-x="1210" 
d="M135 637v178h88v248q0 181 132 298.5t335 117.5q62 0 122.5 -15t102.5 -37t75.5 -44t49.5 -37l17 -15l-150 -180q-11 10 -30 24.5t-74.5 39t-106.5 24.5q-91 0 -147.5 -52.5t-56.5 -131.5v-240h362v-178h-362v-410h638v-227h-1026v227h119v410h-88z" />
    <glyph glyph-name="yen" unicode="&#xa5;" horiz-adv-x="1257" 
d="M162 707v155h200l-315 592h301l191 -387q24 -48 46 -106.5t32 -92.5l10 -34h4q35 124 88 233l190 387h301l-315 -592h201v-155h-281l-51 -101v-67h332v-156h-332v-383h-268v383h-334v156h334v67l-54 101h-280z" />
    <glyph glyph-name="section" unicode="&#xa7;" horiz-adv-x="962" 
d="M281 283l-150 704q-14 68 -14 117q0 165 111.5 270t308.5 105q60 0 117.5 -13t96.5 -31.5t69 -37.5t44 -32l15 -13l-117 -166q-11 9 -30 22.5t-77.5 35.5t-115.5 22q-95 0 -153 -47.5t-58 -145.5q0 -34 14 -102l141 -688h-202zM78 -2l110 176q4 -4 11.5 -10t32 -21.5
t50.5 -27.5t63.5 -21.5t74.5 -9.5q92 0 151.5 52.5t59.5 154.5q0 31 -19 117l-137 661h205l145 -704q15 -69 15 -105q0 -173 -109 -280t-311 -107q-60 0 -117.5 13t-96.5 31.5t-69 36.5t-45 31z" />
    <glyph glyph-name="dieresis" unicode="&#xa8;" horiz-adv-x="1009" 
d="M594 1591v238h199v-238h-199zM217 1591v238h201v-238h-201z" />
    <glyph glyph-name="copyright" unicode="&#xa9;" horiz-adv-x="1656" 
d="M94 727q0 153 58 292t156 239.5t233 159.5t284 59q202 0 371.5 -100t268 -272.5t98.5 -377.5q0 -153 -58 -292.5t-156.5 -240t-235.5 -160t-288 -59.5q-149 0 -284 59.5t-233 160t-156 240t-58 292.5zM276 727q0 -162 72.5 -296.5t198.5 -212t278 -77.5q155 0 283 77.5
t201 212t73 296.5q0 161 -73 295t-201 211.5t-283 77.5q-114 0 -216 -45.5t-175 -123.5t-115.5 -186.5t-42.5 -228.5zM453 723q0 166 108.5 282.5t274.5 116.5q69 0 129 -22t95.5 -54t61 -63.5t35.5 -53.5l10 -22l-155 -73q-2 5 -6.5 13t-20 28t-33.5 35.5t-47.5 28.5
t-62.5 13q-90 0 -145.5 -65.5t-55.5 -163.5q0 -101 54 -165t147 -64q33 0 63 12t48.5 29.5t32.5 35t20 29.5l6 12l155 -71q-3 -9 -10.5 -23.5t-35 -52t-61.5 -66t-94.5 -52t-129.5 -23.5q-166 0 -274.5 116.5t-108.5 282.5z" />
    <glyph glyph-name="ordfeminine" unicode="&#xaa;" horiz-adv-x="845" 
d="M346 784q-88 0 -153.5 54.5t-65.5 146.5q0 225 379 225h18v15q0 106 -118 106q-37 0 -79 -13.5t-65 -27.5l-24 -14l-66 121q4 3 11.5 8.5t32.5 19t53 23.5t73 18.5t92 8.5q132 0 203.5 -70.5t71.5 -196.5v-411h-172v90h-5q-2 -4 -6.5 -11t-20.5 -25t-35.5 -31.5
t-52.5 -24.5t-71 -11zM393 928q55 0 92 45t37 102v15h-22q-189 0 -189 -93q0 -31 22 -50t60 -19zM129 545v139h586v-139h-586z" />
    <glyph glyph-name="guillemotleft" unicode="&#xab;" horiz-adv-x="1196" 
d="M530 578l336 421h248l-336 -421l336 -420h-248zM408 158l-336 420l336 421h247l-336 -421l336 -420h-247z" />
    <glyph glyph-name="logicalnot" unicode="&#xac;" horiz-adv-x="1234" 
d="M96 694v201h1000v-602h-209v401h-791z" />
    <glyph glyph-name="uni00AD" unicode="&#xad;" horiz-adv-x="882" 
d="M133 471v227h617v-227h-617z" />
    <glyph glyph-name="registered" unicode="&#xae;" horiz-adv-x="1656" 
d="M94 727q0 153 58 292t156 239.5t233 159.5t284 59q202 0 371.5 -100t268 -272.5t98.5 -377.5q0 -153 -58 -292.5t-156.5 -240t-235.5 -160t-288 -59.5q-149 0 -284 59.5t-233 160t-156 240t-58 292.5zM276 727q0 -162 72.5 -296.5t198.5 -212t278 -77.5q155 0 283 77.5
t201 212t73 296.5q0 161 -73 295t-201 211.5t-283 77.5q-114 0 -216 -45.5t-175 -123.5t-115.5 -186.5t-42.5 -228.5zM569 356v750h312q110 0 177.5 -65.5t67.5 -172.5q0 -79 -42 -130t-91 -64v-4q9 -8 27 -43l141 -271h-192l-127 277h-99v-277h-174zM743 756h97
q51 0 79.5 29.5t28.5 82.5t-28 82t-78 29h-99v-223z" />
    <glyph glyph-name="macron" unicode="&#xaf;" horiz-adv-x="1009" 
d="M238 1604v178h536v-178h-536z" />
    <glyph glyph-name="degree" unicode="&#xb0;" 
d="M406 836q-140 0 -237 93t-97 228q0 133 97.5 228.5t236.5 95.5q137 0 235 -95.5t98 -228.5q0 -135 -97.5 -228t-235.5 -93zM406 1022q57 0 97 39t40 96q0 56 -40 95.5t-97 39.5t-96.5 -39.5t-39.5 -95.5q0 -57 39.5 -96t96.5 -39z" />
    <glyph glyph-name="plusminus" unicode="&#xb1;" horiz-adv-x="1296" 
d="M100 483v203h443v485h211v-485h442v-203h-442v-483h-211v483h-443zM129 -174h1040v-201h-1040v201z" />
    <glyph glyph-name="twosuperior" unicode="&#xb2;" 
d="M98 866q-8 58 -8 84q0 72 23.5 132t61 101t82.5 75.5t90 62t82.5 53.5t61 57.5t23.5 67.5q0 47 -36.5 77t-90.5 30q-41 0 -81.5 -24t-60.5 -48l-20 -23l-127 113q4 7 11.5 17.5t35.5 38.5t59.5 49.5t84.5 39t110 17.5q129 0 220.5 -75.5t91.5 -203.5q0 -69 -29 -126
t-72.5 -93t-95.5 -70t-96.5 -58.5t-76.5 -56.5t-36 -67h418v-170h-625z" />
    <glyph glyph-name="threesuperior" unicode="&#xb3;" 
d="M379 846q-58 0 -110.5 14t-86.5 34t-59.5 40.5t-36.5 34.5l-12 14l102 137q3 -4 8.5 -10.5t25 -23t41 -29t55 -23t69.5 -10.5q61 0 104 37t43 92t-47 86t-113 31h-71l-41 92l162 184q7 9 19.5 21t20.5 20l9 8v4q-41 -6 -72 -6h-264v172h573v-125l-202 -229
q101 -20 162 -87t61 -173q0 -124 -94 -214.5t-246 -90.5z" />
    <glyph glyph-name="acute" unicode="&#xb4;" horiz-adv-x="1009" 
d="M293 1550l156 279h268l-215 -279h-209z" />
    <glyph glyph-name="mu" unicode="&#xb5;" horiz-adv-x="1288" 
d="M158 -410v1454h258v-618q0 -104 35.5 -158.5t126.5 -54.5q135 0 213.5 102.5t78.5 249.5v479h260v-1044h-249v127l4 66h-6q-2 -5 -6 -12.5t-19 -30.5t-33 -43.5t-48.5 -45.5t-65.5 -43t-84.5 -30.5t-104.5 -12.5q-46 0 -83 10.5t-51 21.5l-13 11h-4q14 -100 14 -170v-258
h-223z" />
    <glyph glyph-name="mu" unicode="&#x3bc;" horiz-adv-x="1288" 
d="M158 -410v1454h258v-618q0 -104 35.5 -158.5t126.5 -54.5q135 0 213.5 102.5t78.5 249.5v479h260v-1044h-249v127l4 66h-6q-2 -5 -6 -12.5t-19 -30.5t-33 -43.5t-48.5 -45.5t-65.5 -43t-84.5 -30.5t-104.5 -12.5q-46 0 -83 10.5t-51 21.5l-13 11h-4q14 -100 14 -170v-258
h-223z" />
    <glyph glyph-name="paragraph" unicode="&#xb6;" horiz-adv-x="1255" 
d="M555 -102v596q-199 0 -340 140t-141 341t141 340t340 139h625v-227h-437v-1329h-188zM870 -102v1216h191v-1216h-191z" />
    <glyph glyph-name="periodcentered" unicode="&#xb7;" horiz-adv-x="567" 
d="M158 469v258h252v-258h-252z" />
    <glyph glyph-name="cedilla" unicode="&#xb8;" horiz-adv-x="1009" 
d="M432 51l119 -26v-15l-23 -100q67 -8 108.5 -47.5t41.5 -108.5q0 -94 -63.5 -137t-157.5 -43q-31 0 -62.5 3.5t-46.5 6.5l-16 4v144q43 -17 88 -17q90 0 90 58q0 55 -98 55l-43 -4z" />
    <glyph glyph-name="onesuperior" unicode="&#xb9;" 
d="M137 866v170h189v424l4 58h-4q-8 -19 -31 -39l-64 -60l-114 123l231 223h172v-729h187v-170h-570z" />
    <glyph glyph-name="ordmasculine" unicode="&#xba;" horiz-adv-x="935" 
d="M467 786q-150 0 -254 98.5t-104 248.5q0 149 104 245.5t254 96.5q151 0 255.5 -96.5t104.5 -245.5q0 -150 -104.5 -248.5t-255.5 -98.5zM467 950q73 0 123.5 51.5t50.5 131.5q0 78 -50.5 129t-123.5 51q-72 0 -122 -51t-50 -129q0 -80 50 -131.5t122 -51.5zM139 545v139
h660v-139h-660z" />
    <glyph glyph-name="guillemotright" unicode="&#xbb;" horiz-adv-x="1198" 
d="M543 158l336 420l-336 421h248l335 -421l-335 -420h-248zM82 158l336 420l-336 421h248l336 -421l-336 -420h-248z" />
    <glyph glyph-name="onequarter" unicode="&#xbc;" horiz-adv-x="2000" 
d="M754 0h-191l688 1454h189zM135 555v170h189v424l4 57h-4q-8 -19 -31 -39l-64 -59l-114 123l231 223h172v-729h187v-170h-570zM1632 0v203h-418v131l388 565h221v-528h119v-168h-119v-203h-191zM1413 371h219v225l6 113h-4q-24 -56 -53 -97l-168 -237v-4z" />
    <glyph glyph-name="onehalf" unicode="&#xbd;" horiz-adv-x="2004" 
d="M733 0h-190l688 1454h188zM109 555v170h188v424l4 57h-4q-8 -19 -31 -39l-63 -59l-115 123l231 223h173v-729h186v-170h-569zM1260 0q-9 65 -9 84q0 72 23.5 132t61 101t82.5 75.5t90 62t82.5 53.5t61 57.5t23.5 67.5q0 47 -36 76.5t-91 29.5q-41 0 -81.5 -23.5
t-60.5 -47.5l-20 -23l-126 113q4 7 11.5 17.5t35.5 38.5t59.5 49.5t84.5 39t110 17.5q129 0 220 -75.5t91 -203.5q0 -69 -29 -126t-72.5 -93t-95.5 -70t-96.5 -58.5t-76.5 -56.5t-36 -67h418v-170h-624z" />
    <glyph glyph-name="threequarters" unicode="&#xbe;" horiz-adv-x="2019" 
d="M745 0h-190l688 1454h189zM1624 0v203h-418v131l387 565h222v-528h118v-168h-118v-203h-191zM1405 371h219v225l6 113h-4q-24 -56 -53 -97l-168 -237v-4zM373 535q-58 0 -110.5 14t-86.5 34.5t-59.5 40.5t-36.5 34l-12 14l102 137q3 -4 8.5 -10.5t25 -23t41 -29t55 -23
t69.5 -10.5q61 0 104 37t43 92t-47 85.5t-113 30.5h-71l-41 93l162 184q7 9 19.5 21t20.5 20l9 8v4q-41 -6 -72 -6h-264v172h573v-125l-203 -229q101 -20 162.5 -87t61.5 -173q0 -124 -94 -214.5t-246 -90.5z" />
    <glyph glyph-name="questiondown" unicode="&#xbf;" horiz-adv-x="940" 
d="M424 803v241h250v-241h-250zM66 -45q0 68 19.5 126.5t51.5 100.5t70 79t76 70t70 65t51.5 72t19.5 85v72h250v-90q0 -60 -18.5 -112.5t-48 -91t-65.5 -73.5t-72 -66t-65.5 -62t-48 -69.5t-18.5 -80.5q0 -72 57.5 -122.5t141.5 -50.5q52 0 106 22.5t83 44.5l28 22
l145 -181q-6 -6 -17 -15.5t-48.5 -34.5t-79.5 -44.5t-107 -35t-133 -15.5q-118 0 -218.5 44.5t-165 134t-64.5 206.5z" />
    <glyph glyph-name="Agrave" unicode="&#xc0;" horiz-adv-x="1304" 
d="M1030 0l-123 373h-510l-123 -373h-272l512 1454h277l512 -1454h-273zM655 1202h-4q-32 -143 -61 -225l-129 -389h381l-129 389q-12 36 -26.5 92.5t-22.5 94.5zM553 1550l-213 279h268l156 -279h-211z" />
    <glyph glyph-name="Aacute" unicode="&#xc1;" horiz-adv-x="1304" 
d="M1030 0l-123 373h-510l-123 -373h-272l512 1454h277l512 -1454h-273zM655 1202h-4q-32 -143 -61 -225l-129 -389h381l-129 389q-12 36 -26.5 92.5t-22.5 94.5zM541 1550l155 279h269l-215 -279h-209z" />
    <glyph glyph-name="Acircumflex" unicode="&#xc2;" horiz-adv-x="1304" 
d="M1030 0l-123 373h-510l-123 -373h-272l512 1454h277l512 -1454h-273zM655 1202h-4q-32 -143 -61 -225l-129 -389h381l-129 389q-12 36 -26.5 92.5t-22.5 94.5zM334 1550l188 279h260l191 -279h-215l-103 166h-4l-102 -166h-215z" />
    <glyph glyph-name="Atilde" unicode="&#xc3;" horiz-adv-x="1304" 
d="M1030 0l-123 373h-510l-123 -373h-272l512 1454h277l512 -1454h-273zM655 1202h-4q-32 -143 -61 -225l-129 -389h381l-129 389q-12 36 -26.5 92.5t-22.5 94.5zM281 1552q0 281 229 281q46 0 86 -21t63 -45.5t52.5 -45.5t56.5 -21q40 0 60 36.5t20 90.5h176
q0 -281 -229 -281q-46 0 -86 21t-63 45.5t-52.5 45.5t-56.5 21q-40 0 -59 -35.5t-19 -91.5h-178z" />
    <glyph glyph-name="Adieresis" unicode="&#xc4;" horiz-adv-x="1304" 
d="M1030 0l-123 373h-510l-123 -373h-272l512 1454h277l512 -1454h-273zM655 1202h-4q-32 -143 -61 -225l-129 -389h381l-129 389q-12 36 -26.5 92.5t-22.5 94.5zM741 1591v238h199v-238h-199zM365 1591v238h200v-238h-200z" />
    <glyph glyph-name="Aring" unicode="&#xc5;" horiz-adv-x="1304" 
d="M1030 0l-123 373h-510l-123 -373h-272l512 1454h277l512 -1454h-273zM655 1202h-4q-32 -143 -61 -225l-129 -389h381l-129 389q-12 36 -26.5 92.5t-22.5 94.5zM653 1526q-79 0 -136.5 43t-57.5 117q0 75 57.5 118t136.5 43q78 0 135.5 -43t57.5 -118q0 -74 -58 -117
t-135 -43zM653 1616q31 0 50.5 19.5t19.5 50.5q0 32 -19.5 51.5t-50.5 19.5t-50 -19.5t-19 -51.5q0 -31 18.5 -50.5t50.5 -19.5z" />
    <glyph glyph-name="AE" unicode="&#xc6;" horiz-adv-x="1849" 
d="M-8 0l604 1454h1133v-227h-609v-381h492v-228h-492v-391h639v-227h-901v623h-346l-246 -623h-274zM750 1227l-154 -389h262v389h-108z" />
    <glyph glyph-name="Ccedilla" unicode="&#xc7;" horiz-adv-x="1470" 
d="M88 733q0 208 97 379t268.5 269t382.5 98q99 0 190.5 -20.5t152 -49.5t106 -58.5t66.5 -50.5l21 -20l-127 -197q-7 6 -19.5 16.5t-53.5 37t-84.5 47t-109 37t-130.5 16.5q-149 0 -261.5 -69t-169.5 -181.5t-57 -249.5q0 -139 58 -256.5t171.5 -190.5t260.5 -73
q71 0 140 19t118 46t87.5 54t57.5 46l19 19l139 -190q-8 -9 -22.5 -24t-65.5 -53.5t-108.5 -69t-149 -57t-188.5 -30.5l-15 -67q67 -8 108.5 -47.5t41.5 -108.5q0 -94 -63.5 -137t-157.5 -43q-31 0 -62.5 3.5t-46.5 6.5l-16 4v144q43 -17 88 -17q90 0 90 58q0 55 -99 55
l-43 -4l43 158q-293 31 -475 241t-182 510z" />
    <glyph glyph-name="Egrave" unicode="&#xc8;" horiz-adv-x="1177" 
d="M184 0v1454h871v-227h-606v-381h489v-228h-489v-391h638v-227h-903zM541 1550l-213 279h268l156 -279h-211z" />
    <glyph glyph-name="Eacute" unicode="&#xc9;" horiz-adv-x="1177" 
d="M184 0v1454h871v-227h-606v-381h489v-228h-489v-391h638v-227h-903zM528 1550l156 279h268l-215 -279h-209z" />
    <glyph glyph-name="Ecircumflex" unicode="&#xca;" horiz-adv-x="1177" 
d="M184 0v1454h871v-227h-606v-381h489v-228h-489v-391h638v-227h-903zM322 1550l188 279h260l191 -279h-216l-102 166h-4l-102 -166h-215z" />
    <glyph glyph-name="Edieresis" unicode="&#xcb;" horiz-adv-x="1177" 
d="M184 0v1454h871v-227h-606v-381h489v-228h-489v-391h638v-227h-903zM729 1591v238h199v-238h-199zM352 1591v238h201v-238h-201z" />
    <glyph glyph-name="Igrave" unicode="&#xcc;" horiz-adv-x="632" 
d="M184 0v1454h265v-1454h-265zM219 1550l-213 279h268l156 -279h-211z" />
    <glyph glyph-name="Iacute" unicode="&#xcd;" horiz-adv-x="632" 
d="M184 0v1454h265v-1454h-265zM205 1550l155 279h269l-215 -279h-209z" />
    <glyph glyph-name="Icircumflex" unicode="&#xce;" horiz-adv-x="632" 
d="M184 0v1454h265v-1454h-265zM-2 1550l188 279h260l191 -279h-215l-103 166h-4l-102 -166h-215z" />
    <glyph glyph-name="Idieresis" unicode="&#xcf;" horiz-adv-x="632" 
d="M184 0v1454h265v-1454h-265zM408 1591v238h198v-238h-198zM31 1591v238h200v-238h-200z" />
    <glyph glyph-name="Eth" unicode="&#xd0;" horiz-adv-x="1552" 
d="M104 616v215h119v623h496q340 0 540.5 -192t200.5 -533t-200.5 -535t-540.5 -194h-496v616h-119zM487 227h218q225 0 354 130t129 372q0 239 -130 368.5t-353 129.5h-218v-396h271v-215h-271v-389z" />
    <glyph glyph-name="Ntilde" unicode="&#xd1;" horiz-adv-x="1556" 
d="M184 0v1454h265l550 -840q24 -37 54.5 -93.5t48.5 -94.5l18 -37h4q-14 139 -14 225v840h262v-1454h-262l-551 838q-24 37 -54.5 93.5t-48.5 94.5l-18 37h-4q15 -139 15 -225v-838h-265zM408 1552q0 281 229 281q46 0 86 -21t63 -45.5t52.5 -45.5t56.5 -21q40 0 60 36.5
t20 90.5h176q0 -281 -229 -281q-46 0 -86 21t-63 45.5t-52.5 45.5t-56.5 21q-40 0 -59 -35.5t-19 -91.5h-178z" />
    <glyph glyph-name="Ograve" unicode="&#xd2;" horiz-adv-x="1671" 
d="M84 737q0 154 58 291t157.5 236t239 157t297.5 58t297.5 -58t239 -157t157 -236t57.5 -291q0 -158 -57.5 -299t-157 -242.5t-239 -161t-297.5 -59.5t-297.5 59.5t-239 161t-157.5 242.5t-58 299zM356 737q0 -222 139.5 -371t340.5 -149t340 149t139 371q0 141 -64 256
t-173.5 179.5t-241.5 64.5q-98 0 -187 -38t-153 -104t-102 -159t-38 -199zM737 1550l-213 279h269l155 -279h-211z" />
    <glyph glyph-name="Oacute" unicode="&#xd3;" horiz-adv-x="1671" 
d="M84 737q0 154 58 291t157.5 236t239 157t297.5 58t297.5 -58t239 -157t157 -236t57.5 -291q0 -158 -57.5 -299t-157 -242.5t-239 -161t-297.5 -59.5t-297.5 59.5t-239 161t-157.5 242.5t-58 299zM356 737q0 -222 139.5 -371t340.5 -149t340 149t139 371q0 141 -64 256
t-173.5 179.5t-241.5 64.5q-98 0 -187 -38t-153 -104t-102 -159t-38 -199zM723 1550l156 279h268l-215 -279h-209z" />
    <glyph glyph-name="Ocircumflex" unicode="&#xd4;" horiz-adv-x="1671" 
d="M84 737q0 154 58 291t157.5 236t239 157t297.5 58t297.5 -58t239 -157t157 -236t57.5 -291q0 -158 -57.5 -299t-157 -242.5t-239 -161t-297.5 -59.5t-297.5 59.5t-239 161t-157.5 242.5t-58 299zM356 737q0 -222 139.5 -371t340.5 -149t340 149t139 371q0 141 -64 256
t-173.5 179.5t-241.5 64.5q-98 0 -187 -38t-153 -104t-102 -159t-38 -199zM516 1550l189 279h260l190 -279h-215l-102 166h-4l-103 -166h-215z" />
    <glyph glyph-name="Otilde" unicode="&#xd5;" horiz-adv-x="1671" 
d="M84 737q0 154 58 291t157.5 236t239 157t297.5 58t297.5 -58t239 -157t157 -236t57.5 -291q0 -158 -57.5 -299t-157 -242.5t-239 -161t-297.5 -59.5t-297.5 59.5t-239 161t-157.5 242.5t-58 299zM356 737q0 -222 139.5 -371t340.5 -149t340 149t139 371q0 141 -64 256
t-173.5 179.5t-241.5 64.5q-98 0 -187 -38t-153 -104t-102 -159t-38 -199zM465 1552q0 281 229 281q46 0 86 -21t63 -45.5t52.5 -45.5t56.5 -21q40 0 60 36.5t20 90.5h176q0 -281 -229 -281q-46 0 -86 21t-63 45.5t-52.5 45.5t-56.5 21q-40 0 -59 -35.5t-19 -91.5h-178z" />
    <glyph glyph-name="Odieresis" unicode="&#xd6;" horiz-adv-x="1671" 
d="M84 737q0 154 58 291t157.5 236t239 157t297.5 58t297.5 -58t239 -157t157 -236t57.5 -291q0 -158 -57.5 -299t-157 -242.5t-239 -161t-297.5 -59.5t-297.5 59.5t-239 161t-157.5 242.5t-58 299zM356 737q0 -222 139.5 -371t340.5 -149t340 149t139 371q0 141 -64 256
t-173.5 179.5t-241.5 64.5q-98 0 -187 -38t-153 -104t-102 -159t-38 -199zM926 1591v238h198v-238h-198zM549 1591v238h201v-238h-201z" />
    <glyph glyph-name="multiply" unicode="&#xd7;" horiz-adv-x="1273" 
d="M96 141l404 445l-404 442l142 143l399 -438l399 438l142 -143l-406 -442l406 -445l-142 -141l-399 438l-399 -438z" />
    <glyph glyph-name="Oslash" unicode="&#xd8;" horiz-adv-x="1679" 
d="M90 737q0 154 58 291t157.5 236t239 157t297.5 58q196 0 375 -95l88 123l116 -80l-88 -122q122 -103 191 -251t69 -317q0 -158 -57.5 -299t-157 -242.5t-239 -161t-297.5 -59.5q-217 0 -391 105l-97 -133l-116 80l100 137q-117 106 -182.5 254t-65.5 319zM1321 737
q0 105 -36.5 197.5t-102.5 159.5l-584 -809q114 -68 244 -68q201 0 340 149t139 371zM362 737q0 -214 127 -360l580 803q-105 57 -227 57q-98 0 -187 -38t-153 -104t-102 -159t-38 -199z" />
    <glyph glyph-name="Ugrave" unicode="&#xd9;" horiz-adv-x="1501" 
d="M164 522v932h264v-932q0 -144 87 -224.5t235 -80.5q149 0 236 80.5t87 226.5v930h264v-932q0 -245 -161.5 -396t-423.5 -151q-264 0 -426 151t-162 396zM651 1550l-213 279h269l155 -279h-211z" />
    <glyph glyph-name="Uacute" unicode="&#xda;" horiz-adv-x="1501" 
d="M164 522v932h264v-932q0 -144 87 -224.5t235 -80.5q149 0 236 80.5t87 226.5v930h264v-932q0 -245 -161.5 -396t-423.5 -151q-264 0 -426 151t-162 396zM637 1550l156 279h268l-215 -279h-209z" />
    <glyph glyph-name="Ucircumflex" unicode="&#xdb;" horiz-adv-x="1501" 
d="M164 522v932h264v-932q0 -144 87 -224.5t235 -80.5q149 0 236 80.5t87 226.5v930h264v-932q0 -245 -161.5 -396t-423.5 -151q-264 0 -426 151t-162 396zM430 1550l188 279h261l190 -279h-215l-102 166h-4l-103 -166h-215z" />
    <glyph glyph-name="Udieresis" unicode="&#xdc;" horiz-adv-x="1501" 
d="M164 522v932h264v-932q0 -144 87 -224.5t235 -80.5q149 0 236 80.5t87 226.5v930h264v-932q0 -245 -161.5 -396t-423.5 -151q-264 0 -426 151t-162 396zM840 1591v238h198v-238h-198zM463 1591v238h201v-238h-201z" />
    <glyph glyph-name="Yacute" unicode="&#xdd;" horiz-adv-x="1239" 
d="M487 0v608l-483 846h299l227 -428q20 -39 42 -89t33.5 -78.5t12.5 -27.5h5q41 105 88 195l225 428h299l-483 -846v-608h-265zM508 1550l156 279h268l-215 -279h-209z" />
    <glyph glyph-name="Thorn" unicode="&#xde;" horiz-adv-x="1259" 
d="M184 0v1454h262v-235h297q205 0 334 -131.5t129 -342.5q0 -212 -129.5 -344.5t-333.5 -132.5h-297v-268h-262zM446 496h248q116 0 180 67t64 182t-63.5 180.5t-176.5 65.5h-252v-495z" />
    <glyph glyph-name="germandbls" unicode="&#xdf;" horiz-adv-x="1236" 
d="M143 0v1083q0 124 69 216t175 136t229 44q178 0 301 -102t123 -255q0 -51 -19 -96.5t-46 -77.5t-54 -61t-46 -61t-19 -64t34 -66t83 -69t98 -76t83 -102.5t34 -133.5q0 -157 -107 -243t-262 -86q-53 0 -100.5 5.5t-78 13.5t-54 15.5t-33.5 13.5l-10 5v221q12 -6 33 -15
t83.5 -23.5t120.5 -14.5q63 0 104.5 30t41.5 93q0 32 -24.5 64t-61.5 58t-80 59t-80 66t-61.5 80t-24.5 99q0 54 29 106t63 86t63 80t29 90q0 57 -45.5 98t-124.5 41q-86 0 -145.5 -48.5t-59.5 -143.5v-1065h-260z" />
    <glyph glyph-name="agrave" unicode="&#xe0;" horiz-adv-x="1093" 
d="M55 301q0 68 26 124t66.5 92t98.5 62.5t112.5 40.5t119.5 22.5t107.5 10.5t88.5 2h35v15q0 184 -201 184q-67 0 -138.5 -25t-109.5 -50l-39 -25l-98 186q7 5 19 14t53.5 31t86 39t113 31t137.5 14q206 0 320.5 -109t114.5 -307v-653h-240v86l4 74h-4q2 0 -8.5 -19
t-34.5 -46t-58.5 -54.5t-91.5 -46.5t-124 -19q-147 0 -251 88t-104 238zM317 313q0 -56 41.5 -95.5t116.5 -39.5q98 0 167 87t69 188v24h-45q-349 0 -349 -164zM444 1174l-213 278h269l155 -278h-211z" />
    <glyph glyph-name="aacute" unicode="&#xe1;" horiz-adv-x="1093" 
d="M55 301q0 68 26 124t66.5 92t98.5 62.5t112.5 40.5t119.5 22.5t107.5 10.5t88.5 2h35v15q0 184 -201 184q-67 0 -138.5 -25t-109.5 -50l-39 -25l-98 186q7 5 19 14t53.5 31t86 39t113 31t137.5 14q206 0 320.5 -109t114.5 -307v-653h-240v86l4 74h-4q2 0 -8.5 -19
t-34.5 -46t-58.5 -54.5t-91.5 -46.5t-124 -19q-147 0 -251 88t-104 238zM317 313q0 -56 41.5 -95.5t116.5 -39.5q98 0 167 87t69 188v24h-45q-349 0 -349 -164zM428 1174l156 278h268l-215 -278h-209z" />
    <glyph glyph-name="acircumflex" unicode="&#xe2;" horiz-adv-x="1093" 
d="M55 301q0 68 26 124t66.5 92t98.5 62.5t112.5 40.5t119.5 22.5t107.5 10.5t88.5 2h35v15q0 184 -201 184q-67 0 -138.5 -25t-109.5 -50l-39 -25l-98 186q7 5 19 14t53.5 31t86 39t113 31t137.5 14q206 0 320.5 -109t114.5 -307v-653h-240v86l4 74h-4q2 0 -8.5 -19
t-34.5 -46t-58.5 -54.5t-91.5 -46.5t-124 -19q-147 0 -251 88t-104 238zM317 313q0 -56 41.5 -95.5t116.5 -39.5q98 0 167 87t69 188v24h-45q-349 0 -349 -164zM221 1174l189 278h260l190 -278h-215l-102 165h-4l-103 -165h-215z" />
    <glyph glyph-name="atilde" unicode="&#xe3;" horiz-adv-x="1093" 
d="M55 301q0 68 26 124t66.5 92t98.5 62.5t112.5 40.5t119.5 22.5t107.5 10.5t88.5 2h35v15q0 184 -201 184q-67 0 -138.5 -25t-109.5 -50l-39 -25l-98 186q7 5 19 14t53.5 31t86 39t113 31t137.5 14q206 0 320.5 -109t114.5 -307v-653h-240v86l4 74h-4q2 0 -8.5 -19
t-34.5 -46t-58.5 -54.5t-91.5 -46.5t-124 -19q-147 0 -251 88t-104 238zM317 313q0 -56 41.5 -95.5t116.5 -39.5q98 0 167 87t69 188v24h-45q-349 0 -349 -164zM170 1176q0 280 229 280q46 0 86 -21t63 -45.5t52.5 -45.5t56.5 -21q40 0 60 36.5t20 90.5h176
q0 -281 -229 -281q-46 0 -86 21t-63 46t-52.5 46t-56.5 21q-40 0 -59 -35.5t-19 -91.5h-178z" />
    <glyph glyph-name="adieresis" unicode="&#xe4;" horiz-adv-x="1093" 
d="M55 301q0 68 26 124t66.5 92t98.5 62.5t112.5 40.5t119.5 22.5t107.5 10.5t88.5 2h35v15q0 184 -201 184q-67 0 -138.5 -25t-109.5 -50l-39 -25l-98 186q7 5 19 14t53.5 31t86 39t113 31t137.5 14q206 0 320.5 -109t114.5 -307v-653h-240v86l4 74h-4q2 0 -8.5 -19
t-34.5 -46t-58.5 -54.5t-91.5 -46.5t-124 -19q-147 0 -251 88t-104 238zM317 313q0 -56 41.5 -95.5t116.5 -39.5q98 0 167 87t69 188v24h-45q-349 0 -349 -164zM631 1214v238h198v-238h-198zM254 1214v238h201v-238h-201z" />
    <glyph glyph-name="aring" unicode="&#xe5;" horiz-adv-x="1093" 
d="M55 301q0 68 26 124t66.5 92t98.5 62.5t112.5 40.5t119.5 22.5t107.5 10.5t88.5 2h35v15q0 184 -201 184q-67 0 -138.5 -25t-109.5 -50l-39 -25l-98 186q7 5 19 14t53.5 31t86 39t113 31t137.5 14q206 0 320.5 -109t114.5 -307v-653h-240v86l4 74h-4q2 0 -8.5 -19
t-34.5 -46t-58.5 -54.5t-91.5 -46.5t-124 -19q-147 0 -251 88t-104 238zM317 313q0 -56 41.5 -95.5t116.5 -39.5q98 0 167 87t69 188v24h-45q-349 0 -349 -164zM541 1149q-79 0 -137 43t-58 117q0 75 58 118t137 43q78 0 135 -43t57 -118q0 -74 -57.5 -117t-134.5 -43z
M541 1239q31 0 50 19.5t19 50.5q0 32 -19 51.5t-50 19.5t-50.5 -19.5t-19.5 -51.5q0 -31 19 -50.5t51 -19.5z" />
    <glyph glyph-name="ae" unicode="&#xe6;" horiz-adv-x="1746" 
d="M55 301q0 66 24.5 120.5t63 90.5t94.5 63t110 42t118.5 24t111.5 11.5t97 2.5h35v15q0 184 -203 184q-65 0 -137 -25t-111 -50l-39 -25l-96 184q6 5 18 14t52 31.5t83.5 40t111 31.5t136.5 14q243 0 340 -154h4q126 154 349 154q215 0 336.5 -145t121.5 -367l-4 -80h-715
q13 -140 97.5 -210t210.5 -70q47 0 95 11.5t83 28t63.5 33t42.5 28.5l15 11l102 -184q-7 -6 -19 -16t-53.5 -36t-87 -46t-116.5 -36t-144 -16q-151 0 -261 60.5t-177 169.5h-4q-8 -19 -23 -43t-48.5 -58t-75 -61t-106 -46.5t-138.5 -19.5q-151 0 -254 87.5t-103 236.5z
M965 655h450q-3 99 -60.5 155t-142.5 56q-99 0 -163 -54t-84 -157zM317 313q0 -58 41 -96.5t119 -38.5q101 0 168.5 87t67.5 190v22h-74q-58 0 -110 -7t-102.5 -24t-80 -51t-29.5 -82z" />
    <glyph glyph-name="ccedilla" unicode="&#xe7;" horiz-adv-x="1118" 
d="M70 522q0 149 68.5 273t199.5 199t299 75q76 0 145.5 -16t114 -39t78 -46t48.5 -39l15 -16l-114 -178q-4 5 -12.5 12.5t-36 27t-57.5 34.5t-75.5 27t-91.5 12q-142 0 -229.5 -93.5t-87.5 -230.5q0 -136 90 -231.5t235 -95.5q49 0 99 13.5t86 33.5t65 39.5t43 32.5l15 14
l100 -185q-6 -6 -16.5 -17t-48.5 -38.5t-80.5 -49t-111 -41t-140.5 -22.5l-15 -67q67 -8 108.5 -47.5t41.5 -108.5q0 -94 -63.5 -137t-157.5 -43q-31 0 -62.5 3.5t-47.5 6.5l-15 4v144q43 -17 88 -17q90 0 90 58q0 55 -98 55l-43 -4l43 160q-214 29 -341.5 179t-127.5 359z
" />
    <glyph glyph-name="egrave" unicode="&#xe8;" horiz-adv-x="1134" 
d="M70 522q0 241 148.5 394t381.5 153q146 0 252.5 -67t158.5 -178t52 -251l-6 -100h-721q12 -131 101 -203.5t212 -72.5q47 0 95.5 11.5t83.5 28.5t64 34t44 29l14 11l101 -186q-7 -6 -19 -16t-53.5 -36t-87 -46t-116.5 -36t-144 -16q-168 0 -297.5 75t-196.5 199t-67 273z
M344 651h457q-3 103 -60.5 160t-146.5 57q-99 0 -165 -57.5t-85 -159.5zM498 1174l-213 278h268l156 -278h-211z" />
    <glyph glyph-name="eacute" unicode="&#xe9;" horiz-adv-x="1134" 
d="M70 522q0 241 148.5 394t381.5 153q146 0 252.5 -67t158.5 -178t52 -251l-6 -100h-721q12 -131 101 -203.5t212 -72.5q47 0 95.5 11.5t83.5 28.5t64 34t44 29l14 11l101 -186q-7 -6 -19 -16t-53.5 -36t-87 -46t-116.5 -36t-144 -16q-168 0 -297.5 75t-196.5 199t-67 273z
M344 651h457q-3 103 -60.5 160t-146.5 57q-99 0 -165 -57.5t-85 -159.5zM481 1174l156 278h268l-215 -278h-209z" />
    <glyph glyph-name="ecircumflex" unicode="&#xea;" horiz-adv-x="1134" 
d="M70 522q0 241 148.5 394t381.5 153q146 0 252.5 -67t158.5 -178t52 -251l-6 -100h-721q12 -131 101 -203.5t212 -72.5q47 0 95.5 11.5t83.5 28.5t64 34t44 29l14 11l101 -186q-7 -6 -19 -16t-53.5 -36t-87 -46t-116.5 -36t-144 -16q-168 0 -297.5 75t-196.5 199t-67 273z
M344 651h457q-3 103 -60.5 160t-146.5 57q-99 0 -165 -57.5t-85 -159.5zM274 1174l189 278h260l190 -278h-215l-102 165h-4l-103 -165h-215z" />
    <glyph glyph-name="edieresis" unicode="&#xeb;" horiz-adv-x="1134" 
d="M70 522q0 241 148.5 394t381.5 153q146 0 252.5 -67t158.5 -178t52 -251l-6 -100h-721q12 -131 101 -203.5t212 -72.5q47 0 95.5 11.5t83.5 28.5t64 34t44 29l14 11l101 -186q-7 -6 -19 -16t-53.5 -36t-87 -46t-116.5 -36t-144 -16q-168 0 -297.5 75t-196.5 199t-67 273z
M344 651h457q-3 103 -60.5 160t-146.5 57q-99 0 -165 -57.5t-85 -159.5zM684 1214v238h199v-238h-199zM307 1214v238h201v-238h-201z" />
    <glyph glyph-name="igrave" unicode="&#xec;" horiz-adv-x="546" 
d="M174 1174l-213 278h268l156 -278h-211zM143 0v1044h260v-1044h-260z" />
    <glyph glyph-name="iacute" unicode="&#xed;" horiz-adv-x="546" 
d="M160 1174l155 278h269l-215 -278h-209zM143 0v1044h260v-1044h-260z" />
    <glyph glyph-name="icircumflex" unicode="&#xee;" horiz-adv-x="546" 
d="M143 0v1044h260v-1044h-260zM-47 1174l188 278h260l191 -278h-215l-103 165h-4l-102 -165h-215z" />
    <glyph glyph-name="idieresis" unicode="&#xef;" horiz-adv-x="546" 
d="M362 1214v238h199v-238h-199zM-14 1214v238h200v-238h-200zM143 0v1044h260v-1044h-260z" />
    <glyph glyph-name="eth" unicode="&#xf0;" horiz-adv-x="1198" 
d="M68 485q0 123 55 228t166.5 172t259.5 67q58 0 110.5 -15t75.5 -29l23 -15h4q-60 132 -193 217l-379 -164l-12 154l228 100q-104 51 -236 82l72 205q259 -58 442 -170l303 129l12 -152l-180 -80q281 -246 281 -645q0 -87 -18 -169t-59 -160t-101 -136.5t-151.5 -93.5
t-203.5 -35q-116 0 -212 43t-157.5 114.5t-95.5 163t-34 189.5zM330 479q0 -117 63 -200.5t180 -83.5q68 0 121 29t83.5 77t45.5 104.5t15 116.5q0 100 -65.5 164t-176.5 64q-127 0 -196.5 -79.5t-69.5 -191.5z" />
    <glyph glyph-name="ntilde" unicode="&#xf1;" horiz-adv-x="1255" 
d="M143 0v1044h250v-120l-4 -72h4q15 29 35.5 56.5t54 57.5t72.5 52t93.5 36.5t115.5 14.5q362 0 362 -397v-672h-258v618q0 104 -36 158.5t-130 54.5q-102 0 -176 -58.5t-104 -154.5q-19 -58 -19 -139v-479h-260zM276 1176q0 280 230 280q46 0 86 -21t63 -45.5t52.5 -45.5
t56.5 -21q40 0 60 36.5t20 90.5h176q0 -281 -229 -281q-46 0 -86 21t-63.5 46t-53 46t-56.5 21q-40 0 -58.5 -35.5t-18.5 -91.5h-179z" />
    <glyph glyph-name="ograve" unicode="&#xf2;" horiz-adv-x="1280" 
d="M66 522q0 156 77 282t208 195.5t288 69.5q158 0 289.5 -69.5t208.5 -195.5t77 -282q0 -157 -77 -283t-207.5 -195t-288.5 -69q-159 0 -290 69t-208 194.5t-77 283.5zM330 522q0 -143 90.5 -234t220.5 -91q129 0 219 91t90 234q0 142 -90 234t-219 92q-130 0 -220.5 -92
t-90.5 -234zM541 1174l-213 278h268l156 -278h-211z" />
    <glyph glyph-name="oacute" unicode="&#xf3;" horiz-adv-x="1280" 
d="M66 522q0 156 77 282t208 195.5t288 69.5q158 0 289.5 -69.5t208.5 -195.5t77 -282q0 -157 -77 -283t-207.5 -195t-288.5 -69q-159 0 -290 69t-208 194.5t-77 283.5zM330 522q0 -143 90.5 -234t220.5 -91q129 0 219 91t90 234q0 142 -90 234t-219 92q-130 0 -220.5 -92
t-90.5 -234zM528 1174l156 278h268l-215 -278h-209z" />
    <glyph glyph-name="ocircumflex" unicode="&#xf4;" horiz-adv-x="1280" 
d="M66 522q0 156 77 282t208 195.5t288 69.5q158 0 289.5 -69.5t208.5 -195.5t77 -282q0 -157 -77 -283t-207.5 -195t-288.5 -69q-159 0 -290 69t-208 194.5t-77 283.5zM330 522q0 -143 90.5 -234t220.5 -91q129 0 219 91t90 234q0 142 -90 234t-219 92q-130 0 -220.5 -92
t-90.5 -234zM322 1174l188 278h260l191 -278h-216l-102 165h-4l-102 -165h-215z" />
    <glyph glyph-name="otilde" unicode="&#xf5;" horiz-adv-x="1280" 
d="M66 522q0 156 77 282t208 195.5t288 69.5q158 0 289.5 -69.5t208.5 -195.5t77 -282q0 -157 -77 -283t-207.5 -195t-288.5 -69q-159 0 -290 69t-208 194.5t-77 283.5zM330 522q0 -143 90.5 -234t220.5 -91q129 0 219 91t90 234q0 142 -90 234t-219 92q-130 0 -220.5 -92
t-90.5 -234zM268 1176q0 280 230 280q46 0 86 -21t63 -45.5t52.5 -45.5t56.5 -21q40 0 60 36.5t20 90.5h176q0 -281 -230 -281q-46 0 -86 21t-63 46t-52.5 46t-56.5 21q-40 0 -59 -35.5t-19 -91.5h-178z" />
    <glyph glyph-name="odieresis" unicode="&#xf6;" horiz-adv-x="1280" 
d="M66 522q0 156 77 282t208 195.5t288 69.5q158 0 289.5 -69.5t208.5 -195.5t77 -282q0 -157 -77 -283t-207.5 -195t-288.5 -69q-159 0 -290 69t-208 194.5t-77 283.5zM330 522q0 -143 90.5 -234t220.5 -91q129 0 219 91t90 234q0 142 -90 234t-219 92q-130 0 -220.5 -92
t-90.5 -234zM729 1214v238h199v-238h-199zM352 1214v238h201v-238h-201z" />
    <glyph glyph-name="divide" unicode="&#xf7;" horiz-adv-x="1280" 
d="M522 895v221h234v-221h-234zM106 483v203h1068v-203h-1068zM522 55v221h234v-221h-234z" />
    <glyph glyph-name="oslash" unicode="&#xf8;" horiz-adv-x="1280" 
d="M66 522q0 156 77 282t208 195.5t288 69.5q148 0 274 -63l82 114l113 -78l-80 -112q88 -73 137 -178.5t49 -229.5q0 -157 -77 -283t-207.5 -195t-288.5 -69q-132 0 -260 54l-84 -117l-113 80l80 110q-94 73 -146 181.5t-52 238.5zM330 522q0 -130 78 -221l368 514
q-68 33 -135 33q-130 0 -220.5 -92t-90.5 -234zM950 522q0 121 -67 207l-365 -508q58 -24 123 -24q129 0 219 91t90 234z" />
    <glyph glyph-name="ugrave" unicode="&#xf9;" horiz-adv-x="1247" 
d="M129 373v671h260v-618q0 -104 35.5 -158.5t126.5 -54.5q135 0 214 102.5t79 249.5v479h260v-1044h-250v119l4 74h-4q-42 -89 -139 -153.5t-223 -64.5q-363 0 -363 398zM518 1174l-213 278h268l156 -278h-211z" />
    <glyph glyph-name="uacute" unicode="&#xfa;" horiz-adv-x="1247" 
d="M129 373v671h260v-618q0 -104 35.5 -158.5t126.5 -54.5q135 0 214 102.5t79 249.5v479h260v-1044h-250v119l4 74h-4q-42 -89 -139 -153.5t-223 -64.5q-363 0 -363 398zM504 1174l155 278h269l-215 -278h-209z" />
    <glyph glyph-name="ucircumflex" unicode="&#xfb;" horiz-adv-x="1247" 
d="M129 373v671h260v-618q0 -104 35.5 -158.5t126.5 -54.5q135 0 214 102.5t79 249.5v479h260v-1044h-250v119l4 74h-4q-42 -89 -139 -153.5t-223 -64.5q-363 0 -363 398zM297 1174l188 278h260l191 -278h-215l-103 165h-4l-102 -165h-215z" />
    <glyph glyph-name="udieresis" unicode="&#xfc;" horiz-adv-x="1247" 
d="M129 373v671h260v-618q0 -104 35.5 -158.5t126.5 -54.5q135 0 214 102.5t79 249.5v479h260v-1044h-250v119l4 74h-4q-42 -89 -139 -153.5t-223 -64.5q-363 0 -363 398zM707 1214v238h198v-238h-198zM330 1214v238h200v-238h-200z" />
    <glyph glyph-name="yacute" unicode="&#xfd;" horiz-adv-x="1067" 
d="M2 -362l86 194q58 -43 117 -43q56 0 104 34t76 101l39 92l-440 1028h292l220 -602q9 -24 18.5 -59.5t15.5 -58.5l5 -23h4q16 82 34 137l205 606h285l-467 -1202q-53 -137 -152.5 -204.5t-224.5 -67.5q-56 0 -110 17t-81 34zM424 1174l156 278h268l-215 -278h-209z" />
    <glyph glyph-name="thorn" unicode="&#xfe;" horiz-adv-x="1249" 
d="M143 -410v1864h260v-446l-4 -86h4q111 147 308 147q211 0 340 -154.5t129 -392.5t-132 -392.5t-341 -154.5q-62 0 -116.5 14.5t-87.5 35.5t-57 42t-34 35l-9 15h-4q4 -37 4 -90v-437h-260zM395 520q0 -152 72 -238.5t192 -86.5q113 0 186 92.5t73 234.5t-71 234t-185 92
q-118 0 -192.5 -79.5t-74.5 -248.5z" />
    <glyph glyph-name="ydieresis" unicode="&#xff;" horiz-adv-x="1067" 
d="M2 -362l86 194q58 -43 117 -43q56 0 104 34t76 101l39 92l-440 1028h292l220 -602q9 -24 18.5 -59.5t15.5 -58.5l5 -23h4q16 82 34 137l205 606h285l-467 -1202q-53 -137 -152.5 -204.5t-224.5 -67.5q-56 0 -110 17t-81 34zM627 1214v238h198v-238h-198zM250 1214v238
h201v-238h-201z" />
    <glyph glyph-name="Amacron" unicode="&#x100;" horiz-adv-x="1304" 
d="M1030 0l-123 373h-510l-123 -373h-272l512 1454h277l512 -1454h-273zM655 1202h-4q-32 -143 -61 -225l-129 -389h381l-129 389q-12 36 -26.5 92.5t-22.5 94.5zM385 1604v178h537v-178h-537z" />
    <glyph glyph-name="amacron" unicode="&#x101;" horiz-adv-x="1093" 
d="M55 301q0 68 26 124t66.5 92t98.5 62.5t112.5 40.5t119.5 22.5t107.5 10.5t88.5 2h35v15q0 184 -201 184q-67 0 -138.5 -25t-109.5 -50l-39 -25l-98 186q7 5 19 14t53.5 31t86 39t113 31t137.5 14q206 0 320.5 -109t114.5 -307v-653h-240v86l4 74h-4q2 0 -8.5 -19
t-34.5 -46t-58.5 -54.5t-91.5 -46.5t-124 -19q-147 0 -251 88t-104 238zM317 313q0 -56 41.5 -95.5t116.5 -39.5q98 0 167 87t69 188v24h-45q-349 0 -349 -164zM274 1227v178h537v-178h-537z" />
    <glyph glyph-name="Abreve" unicode="&#x102;" horiz-adv-x="1304" 
d="M1030 0l-123 373h-510l-123 -373h-272l512 1454h277l512 -1454h-273zM655 1202h-4q-32 -143 -61 -225l-129 -389h381l-129 389q-12 36 -26.5 92.5t-22.5 94.5zM653 1542q-128 0 -216.5 70t-88.5 192v25h184v-25q0 -59 35.5 -90t85.5 -31q48 0 83.5 31.5t35.5 91.5v23h184
v-25q0 -122 -88 -192t-215 -70z" />
    <glyph glyph-name="abreve" unicode="&#x103;" horiz-adv-x="1093" 
d="M55 301q0 68 26 124t66.5 92t98.5 62.5t112.5 40.5t119.5 22.5t107.5 10.5t88.5 2h35v15q0 184 -201 184q-67 0 -138.5 -25t-109.5 -50l-39 -25l-98 186q7 5 19 14t53.5 31t86 39t113 31t137.5 14q206 0 320.5 -109t114.5 -307v-653h-240v86l4 74h-4q2 0 -8.5 -19
t-34.5 -46t-58.5 -54.5t-91.5 -46.5t-124 -19q-147 0 -251 88t-104 238zM317 313q0 -56 41.5 -95.5t116.5 -39.5q98 0 167 87t69 188v24h-45q-349 0 -349 -164zM541 1165q-128 0 -216.5 70t-88.5 192v25h184v-25q0 -59 35.5 -89.5t85.5 -30.5q48 0 83 31.5t35 91.5v22h185
v-25q0 -122 -88 -192t-215 -70z" />
    <glyph glyph-name="Aogonek" unicode="&#x104;" horiz-adv-x="1304" 
d="M1030 0l-123 373h-510l-123 -373h-272l512 1454h277l512 -1454q-115 -97 -115 -160q0 -29 25 -47.5t50 -22.5l25 -3l-63 -193q-5 0 -14 1.5t-35.5 7.5t-50 14t-53 23.5t-50 35t-35 49.5t-14.5 66q0 115 133 225v4h-76zM655 1202h-4q-34 -143 -61 -225l-129 -389h381
l-129 389q-12 36 -26.5 92.5t-22.5 94.5z" />
    <glyph glyph-name="aogonek" unicode="&#x105;" horiz-adv-x="1093" 
d="M55 301q0 68 26 124t66.5 92t98.5 62.5t112.5 40.5t119.5 22.5t107.5 10.5t88.5 2h35v15q0 184 -201 184q-67 0 -138.5 -25t-109.5 -50l-39 -25l-98 186q7 5 19 14t53.5 31t86 39t113 31t137.5 14q206 0 320.5 -109t114.5 -307v-653q-115 -97 -115 -160q0 -29 25 -47.5
t50 -22.5l25 -3l-61 -193q-5 0 -14 1.5t-35.5 7.5t-50 14t-53 23.5t-50 35t-35 49.5t-14.5 66q0 110 133 225v4h-45v86l4 74h-4q2 0 -8.5 -19t-34.5 -46t-58.5 -54.5t-91.5 -46.5t-124 -19q-147 0 -251 88t-104 238zM317 313q0 -56 41.5 -95.5t116.5 -39.5q98 0 167 87
t69 188v24h-45q-349 0 -349 -164z" />
    <glyph glyph-name="Cacute" unicode="&#x106;" horiz-adv-x="1466" 
d="M84 733q0 156 57 294t155.5 237.5t237.5 157t297 57.5q99 0 191 -20.5t152 -49.5t106 -58.5t67 -50.5l21 -20l-127 -197q-7 6 -19.5 16.5t-53.5 37t-84.5 47t-109 37t-130.5 16.5q-149 0 -261.5 -69t-169.5 -181.5t-57 -249.5q0 -139 58 -256.5t171.5 -190.5t260.5 -73
q71 0 140 19t118 46t87.5 54t57.5 46l19 19l139 -190q-8 -10 -24 -25.5t-70.5 -56.5t-115.5 -72t-159 -56.5t-202 -25.5q-218 0 -390.5 100t-267 272.5t-94.5 385.5zM702 1550l156 279h268l-215 -279h-209z" />
    <glyph glyph-name="cacute" unicode="&#x107;" horiz-adv-x="1116" 
d="M68 522q0 149 68.5 273t199.5 199t299 75q76 0 145.5 -16t114 -39t78 -46t48.5 -39l15 -16l-114 -178q-4 5 -12.5 12.5t-36 27t-57.5 34.5t-75.5 27t-91.5 12q-142 0 -229.5 -93.5t-87.5 -230.5q0 -136 90 -231.5t235 -95.5q49 0 99 13.5t86 33.5t65 39.5t43 32.5l15 14
l100 -185q-6 -7 -18 -18.5t-52.5 -40.5t-86.5 -51.5t-120 -41t-153 -18.5q-127 0 -234 43t-179.5 117t-113 174t-40.5 213zM483 1174l156 278h268l-215 -278h-209z" />
    <glyph glyph-name="Ccircumflex" unicode="&#x108;" horiz-adv-x="1466" 
d="M84 733q0 156 57 294t155.5 237.5t237.5 157t297 57.5q99 0 191 -20.5t152 -49.5t106 -58.5t67 -50.5l21 -20l-127 -197q-7 6 -19.5 16.5t-53.5 37t-84.5 47t-109 37t-130.5 16.5q-149 0 -261.5 -69t-169.5 -181.5t-57 -249.5q0 -139 58 -256.5t171.5 -190.5t260.5 -73
q71 0 140 19t118 46t87.5 54t57.5 46l19 19l139 -190q-8 -10 -24 -25.5t-70.5 -56.5t-115.5 -72t-159 -56.5t-202 -25.5q-218 0 -390.5 100t-267 272.5t-94.5 385.5zM496 1550l188 279h260l191 -279h-215l-103 166h-4l-102 -166h-215z" />
    <glyph glyph-name="ccircumflex" unicode="&#x109;" horiz-adv-x="1116" 
d="M68 522q0 149 68.5 273t199.5 199t299 75q76 0 145.5 -16t114 -39t78 -46t48.5 -39l15 -16l-114 -178q-4 5 -12.5 12.5t-36 27t-57.5 34.5t-75.5 27t-91.5 12q-142 0 -229.5 -93.5t-87.5 -230.5q0 -136 90 -231.5t235 -95.5q49 0 99 13.5t86 33.5t65 39.5t43 32.5l15 14
l100 -185q-6 -7 -18 -18.5t-52.5 -40.5t-86.5 -51.5t-120 -41t-153 -18.5q-127 0 -234 43t-179.5 117t-113 174t-40.5 213zM276 1174l189 278h260l190 -278h-215l-102 165h-4l-102 -165h-216z" />
    <glyph glyph-name="Cdotaccent" unicode="&#x10a;" horiz-adv-x="1466" 
d="M84 733q0 156 57 294t155.5 237.5t237.5 157t297 57.5q99 0 191 -20.5t152 -49.5t106 -58.5t67 -50.5l21 -20l-127 -197q-7 6 -19.5 16.5t-53.5 37t-84.5 47t-109 37t-130.5 16.5q-149 0 -261.5 -69t-169.5 -181.5t-57 -249.5q0 -139 58 -256.5t171.5 -190.5t260.5 -73
q71 0 140 19t118 46t87.5 54t57.5 46l19 19l139 -190q-8 -10 -24 -25.5t-70.5 -56.5t-115.5 -72t-159 -56.5t-202 -25.5q-218 0 -390.5 100t-267 272.5t-94.5 385.5zM705 1602v227h221v-227h-221z" />
    <glyph glyph-name="cdotaccent" unicode="&#x10b;" horiz-adv-x="1116" 
d="M68 522q0 149 68.5 273t199.5 199t299 75q76 0 145.5 -16t114 -39t78 -46t48.5 -39l15 -16l-114 -178q-4 5 -12.5 12.5t-36 27t-57.5 34.5t-75.5 27t-91.5 12q-142 0 -229.5 -93.5t-87.5 -230.5q0 -136 90 -231.5t235 -95.5q49 0 99 13.5t86 33.5t65 39.5t43 32.5l15 14
l100 -185q-6 -7 -18 -18.5t-52.5 -40.5t-86.5 -51.5t-120 -41t-153 -18.5q-127 0 -234 43t-179.5 117t-113 174t-40.5 213zM487 1225v227h222v-227h-222z" />
    <glyph glyph-name="Ccaron" unicode="&#x10c;" horiz-adv-x="1466" 
d="M84 733q0 156 57 294t155.5 237.5t237.5 157t297 57.5q99 0 191 -20.5t152 -49.5t106 -58.5t67 -50.5l21 -20l-127 -197q-7 6 -19.5 16.5t-53.5 37t-84.5 47t-109 37t-130.5 16.5q-149 0 -261.5 -69t-169.5 -181.5t-57 -249.5q0 -139 58 -256.5t171.5 -190.5t260.5 -73
q71 0 140 19t118 46t87.5 54t57.5 46l19 19l139 -190q-8 -10 -24 -25.5t-70.5 -56.5t-115.5 -72t-159 -56.5t-202 -25.5q-218 0 -390.5 100t-267 272.5t-94.5 385.5zM684 1550l-188 279h215l102 -166h4l103 166h215l-191 -279h-260z" />
    <glyph glyph-name="ccaron" unicode="&#x10d;" horiz-adv-x="1116" 
d="M68 522q0 149 68.5 273t199.5 199t299 75q76 0 145.5 -16t114 -39t78 -46t48.5 -39l15 -16l-114 -178q-4 5 -12.5 12.5t-36 27t-57.5 34.5t-75.5 27t-91.5 12q-142 0 -229.5 -93.5t-87.5 -230.5q0 -136 90 -231.5t235 -95.5q49 0 99 13.5t86 33.5t65 39.5t43 32.5l15 14
l100 -185q-6 -7 -18 -18.5t-52.5 -40.5t-86.5 -51.5t-120 -41t-153 -18.5q-127 0 -234 43t-179.5 117t-113 174t-40.5 213zM465 1174l-189 278h216l102 -166h4l102 166h215l-190 -278h-260z" />
    <glyph glyph-name="Dcaron" unicode="&#x10e;" horiz-adv-x="1513" 
d="M184 0v1454h496q340 0 540.5 -192t200.5 -533t-200.5 -535t-540.5 -194h-496zM449 227h217q225 0 354 130t129 372q0 239 -130 368.5t-353 129.5h-217v-1000zM580 1550l-189 279h215l103 -166h4l102 166h215l-190 -279h-260z" />
    <glyph glyph-name="dcaron" unicode="&#x10f;" horiz-adv-x="1312" 
d="M72 522q0 247 132 397t341 150q64 0 118.5 -13.5t87 -33t55 -39.5t31.5 -33l9 -14h4q-2 26 -2 59v459h260v-1454h-246v86l4 68h-4q-4 -7 -11 -19t-35 -43t-62 -54.5t-93 -43t-126 -19.5q-211 0 -337 151t-126 396zM334 522q0 -148 72 -237.5t188 -89.5q111 0 186.5 83
t75.5 246q0 84 -28 155.5t-88.5 119t-143.5 47.5q-112 0 -187 -87t-75 -237zM1219 1454h215q14 -57 14 -111q0 -89 -53 -198h-193q41 108 41 178q0 66 -24 131z" />
    <glyph glyph-name="Dcroat" unicode="&#x110;" horiz-adv-x="1552" 
d="M104 616v215h119v623h496q340 0 540.5 -192t200.5 -533t-200.5 -535t-540.5 -194h-496v616h-119zM487 227h218q225 0 354 130t129 372q0 239 -130 368.5t-353 129.5h-218v-396h271v-215h-271v-389z" />
    <glyph glyph-name="dcroat" unicode="&#x111;" horiz-adv-x="1251" 
d="M586 1145v155h262v154h260v-154h147v-155h-147v-1145h-246v86l4 68h-4q-4 -7 -11 -19t-35 -43t-62 -54.5t-93 -43t-126 -19.5q-211 0 -337 151t-126 396q0 247 132 397t341 150q64 0 118.5 -13.5t87 -33t55 -39.5t31.5 -33l9 -14h4q-2 26 -2 59v150h-262zM334 522
q0 -148 72 -237.5t188 -89.5q111 0 186.5 83t75.5 246q0 84 -28 155.5t-88.5 119t-143.5 47.5q-112 0 -187 -87t-75 -237z" />
    <glyph glyph-name="Emacron" unicode="&#x112;" horiz-adv-x="1177" 
d="M184 0v1454h871v-227h-606v-381h489v-228h-489v-391h638v-227h-903zM373 1604v178h536v-178h-536z" />
    <glyph glyph-name="emacron" unicode="&#x113;" horiz-adv-x="1134" 
d="M70 522q0 241 148.5 394t381.5 153q146 0 252.5 -67t158.5 -178t52 -251l-6 -100h-721q12 -131 101 -203.5t212 -72.5q47 0 95.5 11.5t83.5 28.5t64 34t44 29l14 11l101 -186q-7 -6 -19 -16t-53.5 -36t-87 -46t-116.5 -36t-144 -16q-168 0 -297.5 75t-196.5 199t-67 273z
M344 651h457q-3 103 -60.5 160t-146.5 57q-99 0 -165 -57.5t-85 -159.5zM328 1227v178h536v-178h-536z" />
    <glyph glyph-name="Ebreve" unicode="&#x114;" horiz-adv-x="1177" 
d="M184 0v1454h871v-227h-606v-381h489v-228h-489v-391h638v-227h-903zM641 1542q-128 0 -216.5 70t-88.5 192v25h184v-25q0 -59 35.5 -90t85.5 -31q48 0 83.5 31.5t35.5 91.5v23h184v-25q0 -122 -88 -192t-215 -70z" />
    <glyph glyph-name="ebreve" unicode="&#x115;" horiz-adv-x="1134" 
d="M70 522q0 241 148.5 394t381.5 153q146 0 252.5 -67t158.5 -178t52 -251l-6 -100h-721q12 -131 101 -203.5t212 -72.5q47 0 95.5 11.5t83.5 28.5t64 34t44 29l14 11l101 -186q-7 -6 -19 -16t-53.5 -36t-87 -46t-116.5 -36t-144 -16q-168 0 -297.5 75t-196.5 199t-67 273z
M344 651h457q-3 103 -60.5 160t-146.5 57q-99 0 -165 -57.5t-85 -159.5zM596 1165q-128 0 -216.5 70t-88.5 192v25h184v-25q0 -59 35.5 -89.5t85.5 -30.5q48 0 83.5 31.5t35.5 91.5v22h184v-25q0 -122 -88 -192t-215 -70z" />
    <glyph glyph-name="Edotaccent" unicode="&#x116;" horiz-adv-x="1177" 
d="M184 0v1454h871v-227h-606v-381h489v-228h-489v-391h638v-227h-903zM530 1602v227h222v-227h-222z" />
    <glyph glyph-name="edotaccent" unicode="&#x117;" horiz-adv-x="1134" 
d="M70 522q0 241 148.5 394t381.5 153q146 0 252.5 -67t158.5 -178t52 -251l-6 -100h-721q12 -131 101 -203.5t212 -72.5q47 0 95.5 11.5t83.5 28.5t64 34t44 29l14 11l101 -186q-7 -6 -19 -16t-53.5 -36t-87 -46t-116.5 -36t-144 -16q-168 0 -297.5 75t-196.5 199t-67 273z
M344 651h457q-3 103 -60.5 160t-146.5 57q-99 0 -165 -57.5t-85 -159.5zM485 1225v227h222v-227h-222z" />
    <glyph glyph-name="Eogonek" unicode="&#x118;" horiz-adv-x="1177" 
d="M184 0v1454h871v-227h-606v-381h489v-228h-489v-391h638v-227q-114 -96 -114 -160q0 -29 25 -47.5t50 -22.5l25 -3l-63 -193q-5 0 -14 1.5t-35 7.5t-49.5 14t-52.5 23.5t-50 35t-35 49.5t-14 66q0 116 137 225v4h-713z" />
    <glyph glyph-name="eogonek" unicode="&#x119;" horiz-adv-x="1136" 
d="M70 522q0 241 148.5 394t381.5 153q146 0 252.5 -67t158.5 -178t52 -251l-6 -100h-721q11 -134 99.5 -205t213.5 -71q47 0 95.5 11.5t83.5 28.5t64 34t44 29l14 11l101 -184q-20 -20 -69.5 -57.5t-86.5 -67t-67.5 -74t-30.5 -88.5q0 -29 25 -47.5t50 -22.5l25 -3
l-63 -193q-5 0 -14 1.5t-35 7.5t-49.5 14t-52.5 23.5t-50 35t-35 49.5t-14 66q0 105 118 206v5q-44 -7 -71 -7q-168 0 -297.5 75t-196.5 199t-67 273zM344 651h457q-3 103 -60.5 160t-146.5 57q-99 0 -165 -57.5t-85 -159.5z" />
    <glyph glyph-name="Ecaron" unicode="&#x11a;" horiz-adv-x="1177" 
d="M184 0v1454h871v-227h-606v-381h489v-228h-489v-391h638v-227h-903zM510 1550l-188 279h215l102 -166h4l102 166h216l-191 -279h-260z" />
    <glyph glyph-name="ecaron" unicode="&#x11b;" horiz-adv-x="1134" 
d="M70 522q0 241 148.5 394t381.5 153q146 0 252.5 -67t158.5 -178t52 -251l-6 -100h-721q12 -131 101 -203.5t212 -72.5q47 0 95.5 11.5t83.5 28.5t64 34t44 29l14 11l101 -186q-7 -6 -19 -16t-53.5 -36t-87 -46t-116.5 -36t-144 -16q-168 0 -297.5 75t-196.5 199t-67 273z
M344 651h457q-3 103 -60.5 160t-146.5 57q-99 0 -165 -57.5t-85 -159.5zM463 1174l-189 278h215l103 -166h4l102 166h215l-190 -278h-260z" />
    <glyph glyph-name="Gcircumflex" unicode="&#x11c;" horiz-adv-x="1556" 
d="M86 729q0 156 57 295t155.5 239t238.5 158t299 58q100 0 192 -19t152.5 -46t107 -54.5t67.5 -46.5l21 -19l-131 -196q-6 6 -18 15t-51.5 33t-81.5 42.5t-106.5 33.5t-129.5 15q-158 0 -273 -68.5t-171 -180.5t-56 -251q0 -232 140 -376t348 -144q61 0 121 15.5t102 38
t75.5 45t49.5 38.5l16 15v170h-223v227h461v-766h-225v70l2 61h-4q-6 -6 -18 -16.5t-52.5 -37.5t-86 -47.5t-117.5 -37.5t-148 -17q-143 0 -273 54.5t-227.5 150.5t-155 239t-57.5 310zM496 1550l188 279h260l191 -279h-215l-103 166h-4l-102 -166h-215z" />
    <glyph glyph-name="gcircumflex" unicode="&#x11d;" horiz-adv-x="1236" 
d="M250 -141q15 -8 41 -19t102 -30t146 -19q131 0 213 61.5t82 192.5v61l4 56h-4q-94 -142 -291 -142q-145 0 -253 73t-162 191.5t-54 264.5t52 262t158.5 187t252.5 71q64 0 119 -13.5t88.5 -33t57.5 -39.5t34 -33l10 -14h6q-2 13 -2 29v79h244v-981q0 -104 -31.5 -188.5
t-84 -140t-124 -93.5t-149.5 -54.5t-162 -16.5q-96 0 -195 24.5t-176 65.5zM598 240q50 0 91 15.5t76 49t55 95.5t20 147q0 86 -20 147t-57 93.5t-81 46.5t-100 14q-117 0 -181.5 -78.5t-64.5 -212.5q0 -140 69.5 -228.5t192.5 -88.5zM281 1174l188 278h260l191 -278h-215
l-103 165h-4l-102 -165h-215z" />
    <glyph glyph-name="Gbreve" unicode="&#x11e;" horiz-adv-x="1556" 
d="M86 729q0 156 57 295t155.5 239t238.5 158t299 58q100 0 192 -19t152.5 -46t107 -54.5t67.5 -46.5l21 -19l-131 -196q-6 6 -18 15t-51.5 33t-81.5 42.5t-106.5 33.5t-129.5 15q-158 0 -273 -68.5t-171 -180.5t-56 -251q0 -232 140 -376t348 -144q61 0 121 15.5t102 38
t75.5 45t49.5 38.5l16 15v170h-223v227h461v-766h-225v70l2 61h-4q-6 -6 -18 -16.5t-52.5 -37.5t-86 -47.5t-117.5 -37.5t-148 -17q-143 0 -273 54.5t-227.5 150.5t-155 239t-57.5 310zM815 1542q-128 0 -216.5 70t-88.5 192v25h184v-25q0 -59 35.5 -90t85.5 -31
q48 0 83.5 31.5t35.5 91.5v23h184v-25q0 -122 -88 -192t-215 -70z" />
    <glyph glyph-name="gbreve" unicode="&#x11f;" horiz-adv-x="1236" 
d="M250 -141q15 -8 41 -19t102 -30t146 -19q131 0 213 61.5t82 192.5v61l4 56h-4q-94 -142 -291 -142q-145 0 -253 73t-162 191.5t-54 264.5t52 262t158.5 187t252.5 71q64 0 119 -13.5t88.5 -33t57.5 -39.5t34 -33l10 -14h6q-2 13 -2 29v79h244v-981q0 -104 -31.5 -188.5
t-84 -140t-124 -93.5t-149.5 -54.5t-162 -16.5q-96 0 -195 24.5t-176 65.5zM598 240q50 0 91 15.5t76 49t55 95.5t20 147q0 86 -20 147t-57 93.5t-81 46.5t-100 14q-117 0 -181.5 -78.5t-64.5 -212.5q0 -140 69.5 -228.5t192.5 -88.5zM600 1165q-128 0 -216.5 70t-88.5 192
v25h184v-25q0 -59 35.5 -89.5t85.5 -30.5q48 0 83.5 31.5t35.5 91.5v22h184v-25q0 -122 -88 -192t-215 -70z" />
    <glyph glyph-name="Gdotaccent" unicode="&#x120;" horiz-adv-x="1556" 
d="M86 729q0 156 57 295t155.5 239t238.5 158t299 58q100 0 192 -19t152.5 -46t107 -54.5t67.5 -46.5l21 -19l-131 -196q-6 6 -18 15t-51.5 33t-81.5 42.5t-106.5 33.5t-129.5 15q-158 0 -273 -68.5t-171 -180.5t-56 -251q0 -232 140 -376t348 -144q61 0 121 15.5t102 38
t75.5 45t49.5 38.5l16 15v170h-223v227h461v-766h-225v70l2 61h-4q-6 -6 -18 -16.5t-52.5 -37.5t-86 -47.5t-117.5 -37.5t-148 -17q-143 0 -273 54.5t-227.5 150.5t-155 239t-57.5 310zM705 1602v227h221v-227h-221z" />
    <glyph glyph-name="gdotaccent" unicode="&#x121;" horiz-adv-x="1236" 
d="M250 -141q15 -8 41 -19t102 -30t146 -19q131 0 213 61.5t82 192.5v61l4 56h-4q-94 -142 -291 -142q-145 0 -253 73t-162 191.5t-54 264.5t52 262t158.5 187t252.5 71q64 0 119 -13.5t88.5 -33t57.5 -39.5t34 -33l10 -14h6q-2 13 -2 29v79h244v-981q0 -104 -31.5 -188.5
t-84 -140t-124 -93.5t-149.5 -54.5t-162 -16.5q-96 0 -195 24.5t-176 65.5zM598 240q50 0 91 15.5t76 49t55 95.5t20 147q0 86 -20 147t-57 93.5t-81 46.5t-100 14q-117 0 -181.5 -78.5t-64.5 -212.5q0 -140 69.5 -228.5t192.5 -88.5zM489 1225v227h222v-227h-222z" />
    <glyph glyph-name="Gcommaaccent" unicode="&#x122;" horiz-adv-x="1556" 
d="M86 729q0 156 57 295t155.5 239t238.5 158t299 58q100 0 192 -19t152.5 -46t107 -54.5t67.5 -46.5l21 -19l-131 -196q-6 6 -18 15t-51.5 33t-81.5 42.5t-106.5 33.5t-129.5 15q-158 0 -273 -68.5t-171 -180.5t-56 -251q0 -232 140 -376t348 -144q61 0 121 15.5t102 38
t75.5 45t49.5 38.5l16 15v170h-223v227h461v-766h-225v70l2 61h-4q-6 -6 -18 -16.5t-52.5 -37.5t-86 -47.5t-117.5 -37.5t-148 -17q-143 0 -273 54.5t-227.5 150.5t-155 239t-57.5 310zM688 -113h215q15 -61 15 -110q0 -88 -54 -199h-192q41 108 41 178q0 63 -25 131z" />
    <glyph glyph-name="gcommaaccent" unicode="&#x123;" horiz-adv-x="1236" 
d="M250 -141q15 -8 41 -19t102 -30t146 -19q131 0 213 61.5t82 192.5v61l4 56h-4q-94 -142 -291 -142q-145 0 -253 73t-162 191.5t-54 264.5t52 262t158.5 187t252.5 71q64 0 119 -13.5t88.5 -33t57.5 -39.5t34 -33l10 -14h6q-2 13 -2 29v79h244v-981q0 -104 -31.5 -188.5
t-84 -140t-124 -93.5t-149.5 -54.5t-162 -16.5q-96 0 -195 24.5t-176 65.5zM598 240q50 0 91 15.5t76 49t55 95.5t20 147q0 86 -20 147t-57 93.5t-81 46.5t-100 14q-117 0 -181.5 -78.5t-64.5 -212.5q0 -140 69.5 -228.5t192.5 -88.5zM713 1151h-215q-15 59 -15 106
q0 87 54 195h190q-39 -107 -39 -174q0 -62 25 -127z" />
    <glyph glyph-name="Hcircumflex" unicode="&#x124;" horiz-adv-x="1562" 
d="M184 0v1454h265v-616h665v616h264v-1454h-264v610h-665v-610h-265zM461 1550l188 279h260l191 -279h-215l-103 166h-4l-102 -166h-215z" />
    <glyph glyph-name="hcircumflex" unicode="&#x125;" horiz-adv-x="1255" 
d="M143 0v1454h260v-504l-4 -88h4q43 84 138.5 145.5t222.5 61.5q362 0 362 -397v-672h-258v618q0 104 -36 158.5t-130 54.5q-101 0 -176.5 -60t-105.5 -157q-17 -58 -17 -135v-479h-260zM-45 1550l188 279h260l191 -279h-215l-103 166h-4l-102 -166h-215z" />
    <glyph glyph-name="Hbar" unicode="&#x126;" horiz-adv-x="1648" 
d="M227 0v1055h-125v170h125v229h265v-229h663v229h266v-229h127v-170h-127v-1055h-266v610h-663v-610h-265zM492 838h663v217h-663v-217z" />
    <glyph glyph-name="hbar" unicode="&#x127;" horiz-adv-x="1255" 
d="M8 1145v155h135v154h260v-154h273v-155h-273v-195l-4 -88h4q43 84 138.5 145.5t222.5 61.5q362 0 362 -397v-672h-258v618q0 104 -36 158.5t-130 54.5q-101 0 -176.5 -60t-105.5 -157q-17 -58 -17 -135v-479h-260v1145h-135z" />
    <glyph glyph-name="Itilde" unicode="&#x128;" horiz-adv-x="632" 
d="M184 0v1454h265v-1454h-265zM-53 1552q0 281 229 281q46 0 86 -21t63 -45.5t52.5 -45.5t56.5 -21q40 0 60 36.5t20 90.5h176q0 -281 -229 -281q-46 0 -86 21t-63 45.5t-52.5 45.5t-56.5 21q-40 0 -59 -35.5t-19 -91.5h-178z" />
    <glyph glyph-name="itilde" unicode="&#x129;" horiz-adv-x="546" 
d="M-98 1176q0 280 229 280q46 0 86 -21t63 -45.5t52.5 -45.5t56.5 -21q40 0 60 36.5t20 90.5h176q0 -281 -229 -281q-46 0 -86 21t-63 46t-52.5 46t-56.5 21q-40 0 -59 -35.5t-19 -91.5h-178zM143 0v1044h260v-1044h-260z" />
    <glyph glyph-name="Imacron" unicode="&#x12a;" horiz-adv-x="632" 
d="M184 0v1454h265v-1454h-265zM51 1604v178h537v-178h-537z" />
    <glyph glyph-name="imacron" unicode="&#x12b;" horiz-adv-x="546" 
d="M6 1227v178h537v-178h-537zM143 0v1044h260v-1044h-260z" />
    <glyph glyph-name="Ibreve" unicode="&#x12c;" horiz-adv-x="632" 
d="M184 0v1454h265v-1454h-265zM319 1542q-128 0 -216.5 70t-88.5 192v25h185v-25q0 -59 35 -90t85 -31q48 0 83.5 31.5t35.5 91.5v23h185v-25q0 -122 -88.5 -192t-215.5 -70z" />
    <glyph glyph-name="ibreve" unicode="&#x12d;" horiz-adv-x="546" 
d="M274 1165q-128 0 -216.5 70t-88.5 192v25h185v-25q0 -59 35 -89.5t85 -30.5q48 0 83.5 31.5t35.5 91.5v22h185v-25q0 -122 -88.5 -192t-215.5 -70zM143 0v1044h260v-1044h-260z" />
    <glyph glyph-name="Iogonek" unicode="&#x12e;" horiz-adv-x="632" 
d="M184 0v1454h265v-1454q-109 -97 -109 -160q0 -29 25 -47.5t50 -22.5l25 -3l-61 -193q-5 0 -14 1.5t-35.5 7.5t-50 14t-53 23.5t-50 35t-35 49.5t-14.5 66q0 69 39 127.5t88 97.5v4h-70z" />
    <glyph glyph-name="iogonek" unicode="&#x12f;" horiz-adv-x="546" 
d="M143 0v1044h260v-1044q-40 -34 -74 -78t-34 -82q0 -29 25 -47.5t50 -22.5l25 -3l-63 -193q-5 0 -14 1.5t-35 7.5t-49.5 14t-52.5 23.5t-50 35t-35 49.5t-14 66q0 69 39 127.5t88 97.5v4h-66zM143 1223v231h258v-231h-258z" />
    <glyph glyph-name="Idotaccent" unicode="&#x130;" horiz-adv-x="632" 
d="M184 0v1454h265v-1454h-265zM209 1602v227h221v-227h-221z" />
    <glyph glyph-name="dotlessi" unicode="&#x131;" horiz-adv-x="546" 
d="M143 0v1044h260v-1044h-260z" />
    <glyph glyph-name="IJ" unicode="&#x132;" horiz-adv-x="1316" 
d="M616 -8v239q35 0 68.5 6.5t71 25.5t64.5 49.5t45 83t18 120.5v938h268v-942q0 -126 -33 -221t-84.5 -150.5t-125 -90.5t-143 -46.5t-149.5 -11.5zM184 0v1454h265v-1454h-265z" />
    <glyph glyph-name="ij" unicode="&#x133;" horiz-adv-x="1101" 
d="M143 1223v231h258v-231h-258zM143 0v1044h260v-1044h-260zM698 1223v231h258v-231h-258zM698 1044h260v-1075q0 -100 -32.5 -175t-79 -115t-110 -65t-113 -31.5t-101.5 -6.5q-22 0 -42 1.5t-29 2.5l-9 2v219q18 -4 45 -4q26 0 50.5 3.5t55 15.5t53 32t37.5 56.5t15 85.5
v1054z" />
    <glyph glyph-name="Jcircumflex" unicode="&#x134;" horiz-adv-x="1120" 
d="M49 430v84h262v-68q0 -120 55 -174.5t138 -54.5q81 0 133.5 53t52.5 164v793h-375v227h639v-1024q0 -114 -39 -204t-104.5 -143t-144.5 -80.5t-166 -27.5q-68 0 -132.5 17t-122.5 53.5t-101.5 89t-69 128.5t-25.5 167zM309 1550l189 279h260l190 -279h-215l-102 166h-4
l-103 -166h-215z" />
    <glyph glyph-name="jcircumflex" unicode="&#x135;" horiz-adv-x="546" 
d="M143 1044h260v-1075q0 -100 -32.5 -175t-79 -115t-110 -65t-113 -31.5t-101.5 -6.5q-22 0 -42 1.5t-29 2.5l-9 2v219q18 -4 45 -4q26 0 50.5 3.5t55 15.5t53 32t37.5 56.5t15 85.5v1054zM-39 1174l191 280h237l191 -280h-205l-103 167h-4l-102 -167h-205z" />
    <glyph glyph-name="Kcommaaccent" unicode="&#x136;" horiz-adv-x="1325" 
d="M184 0v1454h265v-592h188l342 592h287l-412 -692v-4l436 -758h-297l-356 635h-188v-635h-265zM567 -113h215q15 -61 15 -110q0 -88 -54 -199h-192q41 108 41 178q0 63 -25 131z" />
    <glyph glyph-name="kcommaaccent" unicode="&#x137;" horiz-adv-x="1130" 
d="M143 0v1454h260v-778h129l252 368h289l-330 -466v-5l371 -573h-299l-276 457h-136v-457h-260zM475 -113h215q15 -61 15 -110q0 -88 -54 -199h-192q41 108 41 178q0 63 -25 131z" />
    <glyph glyph-name="kgreenlandic" unicode="&#x138;" horiz-adv-x="1132" 
d="M143 0v1044h260v-393h127l265 393h290l-342 -489v-4l357 -551h-305l-258 432h-134v-432h-260z" />
    <glyph glyph-name="Lacute" unicode="&#x139;" horiz-adv-x="1103" 
d="M184 0v1454h265v-1227h628v-227h-893zM205 1550l155 279h269l-215 -279h-209z" />
    <glyph glyph-name="lacute" unicode="&#x13a;" horiz-adv-x="581" 
d="M129 326v1128h258v-1089q0 -82 26 -113t81 -31l38 2v-227q-38 -6 -81 -6q-49 0 -89 6t-85.5 26.5t-76 55.5t-51 98.5t-20.5 149.5zM147 1550l156 279h268l-215 -279h-209z" />
    <glyph glyph-name="Lcommaaccent" unicode="&#x13b;" horiz-adv-x="1103" 
d="M184 0v1454h265v-1227h628v-227h-893zM530 -113h215q15 -61 15 -110q0 -90 -53 -199h-193q41 108 41 178q0 63 -25 131z" />
    <glyph glyph-name="lcommaaccent" unicode="&#x13c;" horiz-adv-x="581" 
d="M129 326v1128h258v-1089q0 -82 26 -113t81 -31l38 2v-227q-38 -6 -81 -6q-49 0 -89 6t-85.5 26.5t-76 55.5t-51 98.5t-20.5 149.5zM225 -113h215q15 -61 15 -110q0 -88 -54 -199h-192q41 108 41 178q0 63 -25 131z" />
    <glyph glyph-name="Lcaron" unicode="&#x13d;" horiz-adv-x="1103" 
d="M184 0v1454h265v-1227h628v-227h-893zM610 1454h215q15 -62 15 -111q0 -87 -54 -198h-192q41 108 41 178q0 63 -25 131z" />
    <glyph glyph-name="lcaron" unicode="&#x13e;" horiz-adv-x="643" 
d="M129 326v1128h258v-1089q0 -82 26 -113t81 -31l38 2v-227q-38 -6 -81 -6q-49 0 -89 6t-85.5 26.5t-76 55.5t-51 98.5t-20.5 149.5zM500 1454h215q14 -57 14 -111q0 -89 -53 -198h-193q41 108 41 178q0 66 -24 131z" />
    <glyph glyph-name="Ldot" unicode="&#x13f;" horiz-adv-x="1103" 
d="M184 0v1454h265v-1227h628v-227h-893zM668 662v258h252v-258h-252z" />
    <glyph glyph-name="ldot" unicode="&#x140;" horiz-adv-x="802" 
d="M129 326v1128h258v-1089q0 -82 26 -113t81 -31l38 2v-227q-38 -6 -81 -6q-49 0 -89 6t-85.5 26.5t-76 55.5t-51 98.5t-20.5 149.5zM545 662v258h252v-258h-252z" />
    <glyph glyph-name="Lslash" unicode="&#x141;" horiz-adv-x="1150" 
d="M117 473v254l114 66v661h265v-510l217 125v-254l-217 -125v-463h628v-227h-893v539z" />
    <glyph glyph-name="lslash" unicode="&#x142;" horiz-adv-x="692" 
d="M72 500v254l131 75v625h258v-477l157 92v-254l-157 -92v-358q0 -82 26 -113t80 -31l39 2v-227q-39 -6 -82 -6q-49 0 -89 6t-85.5 26.5t-75.5 55.5t-50.5 98.5t-20.5 149.5v249z" />
    <glyph glyph-name="Nacute" unicode="&#x143;" horiz-adv-x="1556" 
d="M184 0v1454h265l550 -840q24 -37 54.5 -93.5t48.5 -94.5l18 -37h4q-14 139 -14 225v840h262v-1454h-262l-551 838q-24 37 -54.5 93.5t-48.5 94.5l-18 37h-4q15 -139 15 -225v-838h-265zM668 1550l155 279h269l-215 -279h-209z" />
    <glyph glyph-name="nacute" unicode="&#x144;" horiz-adv-x="1255" 
d="M143 0v1044h250v-120l-4 -72h4q15 29 35.5 56.5t54 57.5t72.5 52t93.5 36.5t115.5 14.5q362 0 362 -397v-672h-258v618q0 104 -36 158.5t-130 54.5q-102 0 -176 -58.5t-104 -154.5q-19 -58 -19 -139v-479h-260zM537 1174l155 278h269l-216 -278h-208z" />
    <glyph glyph-name="Ncommaaccent" unicode="&#x145;" horiz-adv-x="1556" 
d="M184 0v1454h265l550 -840q24 -37 54.5 -93.5t48.5 -94.5l18 -37h4q-14 139 -14 225v840h262v-1454h-262l-551 838q-24 37 -54.5 93.5t-48.5 94.5l-18 37h-4q15 -139 15 -225v-838h-265zM668 -113h215q14 -57 14 -110q0 -90 -53 -199h-193q41 108 41 178q0 66 -24 131z
" />
    <glyph glyph-name="ncommaaccent" unicode="&#x146;" horiz-adv-x="1255" 
d="M143 0v1044h250v-120l-4 -72h4q15 29 35.5 56.5t54 57.5t72.5 52t93.5 36.5t115.5 14.5q362 0 362 -397v-672h-258v618q0 104 -36 158.5t-130 54.5q-102 0 -176 -58.5t-104 -154.5q-19 -58 -19 -139v-479h-260zM518 -113h215q15 -61 15 -110q0 -88 -54 -199h-192
q41 108 41 178q0 63 -25 131z" />
    <glyph glyph-name="Ncaron" unicode="&#x147;" horiz-adv-x="1556" 
d="M184 0v1454h265l550 -840q24 -37 54.5 -93.5t48.5 -94.5l18 -37h4q-14 139 -14 225v840h262v-1454h-262l-551 838q-24 37 -54.5 93.5t-48.5 94.5l-18 37h-4q15 -139 15 -225v-838h-265zM649 1550l-188 279h215l102 -166h4l103 166h215l-191 -279h-260z" />
    <glyph glyph-name="ncaron" unicode="&#x148;" horiz-adv-x="1255" 
d="M143 0v1044h250v-120l-4 -72h4q15 29 35.5 56.5t54 57.5t72.5 52t93.5 36.5t115.5 14.5q362 0 362 -397v-672h-258v618q0 104 -36 158.5t-130 54.5q-102 0 -176 -58.5t-104 -154.5q-19 -58 -19 -139v-479h-260zM518 1174l-188 278h215l102 -166h4l103 166h215l-191 -278
h-260z" />
    <glyph glyph-name="napostrophe" unicode="&#x149;" horiz-adv-x="1255" 
d="M143 0v1044h250v-120l-4 -72h4q15 29 35.5 56.5t54 57.5t72.5 52t93.5 36.5t115.5 14.5q362 0 362 -397v-672h-258v618q0 104 -36 158.5t-130 54.5q-102 0 -176 -58.5t-104 -154.5q-19 -58 -19 -139v-479h-260zM-23 1454h216q14 -57 14 -111q0 -89 -53 -198h-193
q41 108 41 178q0 63 -25 131z" />
    <glyph glyph-name="Eng" unicode="&#x14a;" horiz-adv-x="1556" 
d="M184 0v1454h265l550 -840q24 -37 54.5 -93.5t48.5 -94.5l18 -37h4q-14 139 -14 225v840h262v-1366q0 -118 -32 -209.5t-83 -147t-122 -90.5t-141 -48t-148 -13v240q36 0 75 11t78 33t67 61.5t34 90.5l-541 822q-24 38 -54.5 94.5t-48.5 93.5l-18 37h-4q15 -139 15 -225
v-838h-265z" />
    <glyph glyph-name="eng" unicode="&#x14b;" horiz-adv-x="1257" 
d="M143 0v1044h252v-147l-4 -45h4q19 37 48 71.5t73 69t108.5 55.5t139.5 21q364 0 364 -397v-707q0 -100 -32.5 -175t-79 -115t-110 -65t-113 -31.5t-101.5 -6.5q-21 0 -41 1.5t-29 2.5l-10 2v219q18 -2 45 -2t51.5 3.5t55 15t52.5 31.5t37 56t15 85v632q0 104 -35.5 158.5
t-127.5 54.5q-102 0 -177.5 -58.5t-105.5 -154.5q-19 -68 -19 -139v-479h-260z" />
    <glyph glyph-name="Omacron" unicode="&#x14c;" horiz-adv-x="1671" 
d="M84 737q0 154 58 291t157.5 236t239 157t297.5 58t297.5 -58t239 -157t157 -236t57.5 -291q0 -158 -57.5 -299t-157 -242.5t-239 -161t-297.5 -59.5t-297.5 59.5t-239 161t-157.5 242.5t-58 299zM356 737q0 -222 139.5 -371t340.5 -149t340 149t139 371q0 141 -64 256
t-173.5 179.5t-241.5 64.5q-98 0 -187 -38t-153 -104t-102 -159t-38 -199zM569 1604v178h537v-178h-537z" />
    <glyph glyph-name="omacron" unicode="&#x14d;" horiz-adv-x="1280" 
d="M66 522q0 156 77 282t208 195.5t288 69.5q158 0 289.5 -69.5t208.5 -195.5t77 -282q0 -157 -77 -283t-207.5 -195t-288.5 -69q-159 0 -290 69t-208 194.5t-77 283.5zM330 522q0 -143 90.5 -234t220.5 -91q129 0 219 91t90 234q0 142 -90 234t-219 92q-130 0 -220.5 -92
t-90.5 -234zM373 1227v178h536v-178h-536z" />
    <glyph glyph-name="Obreve" unicode="&#x14e;" horiz-adv-x="1671" 
d="M84 737q0 154 58 291t157.5 236t239 157t297.5 58t297.5 -58t239 -157t157 -236t57.5 -291q0 -158 -57.5 -299t-157 -242.5t-239 -161t-297.5 -59.5t-297.5 59.5t-239 161t-157.5 242.5t-58 299zM356 737q0 -222 139.5 -371t340.5 -149t340 149t139 371q0 141 -64 256
t-173.5 179.5t-241.5 64.5q-98 0 -187 -38t-153 -104t-102 -159t-38 -199zM836 1542q-128 0 -217 70t-89 192v25h185v-25q0 -59 35.5 -90t85.5 -31q48 0 83 31.5t35 91.5v23h185v-25q0 -122 -88 -192t-215 -70z" />
    <glyph glyph-name="obreve" unicode="&#x14f;" horiz-adv-x="1280" 
d="M66 522q0 156 77 282t208 195.5t288 69.5q158 0 289.5 -69.5t208.5 -195.5t77 -282q0 -157 -77 -283t-207.5 -195t-288.5 -69q-159 0 -290 69t-208 194.5t-77 283.5zM330 522q0 -143 90.5 -234t220.5 -91q129 0 219 91t90 234q0 142 -90 234t-219 92q-130 0 -220.5 -92
t-90.5 -234zM641 1165q-128 0 -216.5 70t-88.5 192v25h184v-25q0 -59 35.5 -89.5t85.5 -30.5q48 0 83.5 31.5t35.5 91.5v22h184v-25q0 -122 -88 -192t-215 -70z" />
    <glyph glyph-name="Ohungarumlaut" unicode="&#x150;" horiz-adv-x="1671" 
d="M84 737q0 154 58 291t157.5 236t239 157t297.5 58t297.5 -58t239 -157t157 -236t57.5 -291q0 -158 -57.5 -299t-157 -242.5t-239 -161t-297.5 -59.5t-297.5 59.5t-239 161t-157.5 242.5t-58 299zM356 737q0 -222 139.5 -371t340.5 -149t340 149t139 371q0 141 -64 256
t-173.5 179.5t-241.5 64.5q-98 0 -187 -38t-153 -104t-102 -159t-38 -199zM885 1550l155 279h256l-213 -279h-198zM526 1550l146 279h221l-152 -279h-215z" />
    <glyph glyph-name="ohungarumlaut" unicode="&#x151;" horiz-adv-x="1280" 
d="M66 522q0 156 77 282t208 195.5t288 69.5q158 0 289.5 -69.5t208.5 -195.5t77 -282q0 -157 -77 -283t-207.5 -195t-288.5 -69q-159 0 -290 69t-208 194.5t-77 283.5zM330 522q0 -143 90.5 -234t220.5 -91q129 0 219 91t90 234q0 142 -90 234t-219 92q-130 0 -220.5 -92
t-90.5 -234zM688 1174l156 278h256l-213 -278h-199zM330 1174l145 278h221l-151 -278h-215z" />
    <glyph glyph-name="OE" unicode="&#x152;" horiz-adv-x="1982" 
d="M82 729q0 154 59.5 291.5t161 236t243 156t300.5 57.5q62 0 142 -8t116 -8h758v-227h-609v-381h492v-228h-492v-391h641v-227h-790q-34 0 -115 -9t-143 -9q-159 0 -300.5 58.5t-243 158t-161 238t-59.5 292.5zM354 729q0 -144 63 -263t176 -188t253 -69q37 0 73.5 3.5
t54.5 7.5l17 3v1008q-61 14 -145 14q-140 0 -253 -69t-176 -187t-63 -260z" />
    <glyph glyph-name="oe" unicode="&#x153;" horiz-adv-x="2015" 
d="M68 520q0 160 76.5 286.5t205 194.5t283.5 68q279 0 432 -215h4q135 215 412 215q146 0 252.5 -67t158.5 -178t52 -251l-7 -100h-718q10 -91 55.5 -154.5t111 -92.5t144.5 -29q47 0 95.5 11.5t83.5 28.5t64 34t43 29l15 11l100 -186q-7 -6 -19 -16t-53.5 -36t-87 -46
t-116.5 -36t-144 -16q-291 0 -436 222h-4q-156 -222 -438 -222q-156 0 -284 66.5t-204.5 192t-76.5 286.5zM1225 651h456q-3 101 -59 159t-143 58q-101 0 -168 -57.5t-86 -159.5zM330 520q0 -145 90 -234t221 -89q130 0 219.5 89t89.5 236q0 145 -90 235.5t-219 90.5
q-131 0 -221 -91t-90 -237z" />
    <glyph glyph-name="Racute" unicode="&#x154;" horiz-adv-x="1347" 
d="M184 0v1454h469q116 0 180.5 -9.5t112.5 -31.5q111 -51 174.5 -153t63.5 -244q0 -133 -66.5 -243t-179.5 -155v-4q20 -20 49 -71l299 -543h-295l-289 543h-253v-543h-265zM449 772h237q106 0 167.5 60.5t61.5 168.5q0 112 -59.5 169t-206.5 57h-200v-455zM530 1550
l156 279h268l-215 -279h-209z" />
    <glyph glyph-name="racute" unicode="&#x155;" horiz-adv-x="804" 
d="M143 0v1044h250v-180l-4 -73h4q37 117 126.5 192.5t205.5 75.5l47 -4v-256q-26 4 -61 4q-59 0 -112.5 -21.5t-101.5 -72.5t-71 -125q-23 -73 -23 -170v-414h-260zM371 1174l155 278h269l-215 -278h-209z" />
    <glyph glyph-name="Rcommaaccent" unicode="&#x156;" horiz-adv-x="1347" 
d="M184 0v1454h469q116 0 180.5 -9.5t112.5 -31.5q111 -51 174.5 -153t63.5 -244q0 -133 -66.5 -243t-179.5 -155v-4q20 -20 49 -71l299 -543h-295l-289 543h-253v-543h-265zM449 772h237q106 0 167.5 60.5t61.5 168.5q0 112 -59.5 169t-206.5 57h-200v-455zM573 -113h215
q15 -61 15 -110q0 -90 -53 -199h-193q41 108 41 178q0 63 -25 131z" />
    <glyph glyph-name="rcommaaccent" unicode="&#x157;" horiz-adv-x="804" 
d="M143 0v1044h250v-180l-4 -73h4q37 117 126.5 192.5t205.5 75.5l47 -4v-256q-26 4 -61 4q-59 0 -112.5 -21.5t-101.5 -72.5t-71 -125q-23 -73 -23 -170v-414h-260zM164 -113h215q14 -57 14 -110q0 -90 -53 -199h-193q41 108 41 178q0 66 -24 131z" />
    <glyph glyph-name="Rcaron" unicode="&#x158;" horiz-adv-x="1347" 
d="M184 0v1454h469q116 0 180.5 -9.5t112.5 -31.5q111 -51 174.5 -153t63.5 -244q0 -133 -66.5 -243t-179.5 -155v-4q20 -20 49 -71l299 -543h-295l-289 543h-253v-543h-265zM449 772h237q106 0 167.5 60.5t61.5 168.5q0 112 -59.5 169t-206.5 57h-200v-455zM512 1550
l-188 279h215l102 -166h4l103 166h215l-191 -279h-260z" />
    <glyph glyph-name="rcaron" unicode="&#x159;" horiz-adv-x="804" 
d="M143 0v1044h250v-180l-4 -73h4q37 117 126.5 192.5t205.5 75.5l47 -4v-256q-26 4 -61 4q-59 0 -112.5 -21.5t-101.5 -72.5t-71 -125q-23 -73 -23 -170v-414h-260zM354 1174l-188 278h215l102 -166h4l103 166h215l-191 -278h-260z" />
    <glyph glyph-name="Sacute" unicode="&#x15a;" horiz-adv-x="1134" 
d="M74 174l143 199q6 -6 18 -16.5t50.5 -37t78.5 -47t99.5 -37t116.5 -16.5q89 0 150 45.5t61 130.5q0 52 -38 94.5t-98.5 73t-133.5 61t-146.5 68t-134 84t-98.5 118.5t-38 163q0 181 139.5 301.5t348.5 120.5q80 0 154.5 -16t123 -39t85.5 -46t54 -39l17 -16l-115 -215
q-6 5 -16.5 13.5t-44 30.5t-69 39t-88 30.5t-103.5 13.5q-93 0 -156 -49t-63 -125q0 -41 23.5 -75t63 -59t91 -48t108 -46.5t113 -49.5t108 -61.5t91 -79t63 -105.5t23.5 -136q0 -180 -130 -303t-350 -123q-91 0 -176 20.5t-141.5 49.5t-100 58.5t-63.5 50.5zM463 1550
l155 279h269l-215 -279h-209z" />
    <glyph glyph-name="sacute" unicode="&#x15b;" horiz-adv-x="925" 
d="M55 129l119 182q5 -5 13.5 -12.5t37.5 -27t60 -34.5t78.5 -27.5t95.5 -12.5q58 0 97.5 25t39.5 69q0 31 -28 57t-73 46t-99 41.5t-108 49.5t-99 63.5t-73 90.5t-28 123q0 142 112.5 224.5t286.5 82.5q66 0 126.5 -12.5t99.5 -29.5t68.5 -34.5t42.5 -30.5l14 -12l-97 -192
q-4 4 -11.5 10t-32.5 21.5t-53 27.5t-71 21.5t-88 9.5q-56 0 -94.5 -24t-38.5 -70q0 -29 28 -54t73 -44.5t99 -40t108 -49t99 -63.5t73 -90.5t28 -123.5q0 -134 -109 -224t-290 -90q-73 0 -141.5 16t-114.5 38.5t-81.5 45t-51.5 38.5zM352 1174l156 278h268l-215 -278h-209z
" />
    <glyph glyph-name="Scircumflex" unicode="&#x15c;" horiz-adv-x="1134" 
d="M74 174l143 199q6 -6 18 -16.5t50.5 -37t78.5 -47t99.5 -37t116.5 -16.5q89 0 150 45.5t61 130.5q0 52 -38 94.5t-98.5 73t-133.5 61t-146.5 68t-134 84t-98.5 118.5t-38 163q0 181 139.5 301.5t348.5 120.5q80 0 154.5 -16t123 -39t85.5 -46t54 -39l17 -16l-115 -215
q-6 5 -16.5 13.5t-44 30.5t-69 39t-88 30.5t-103.5 13.5q-93 0 -156 -49t-63 -125q0 -41 23.5 -75t63 -59t91 -48t108 -46.5t113 -49.5t108 -61.5t91 -79t63 -105.5t23.5 -136q0 -180 -130 -303t-350 -123q-91 0 -176 20.5t-141.5 49.5t-100 58.5t-63.5 50.5zM256 1550
l188 279h261l190 -279h-215l-102 166h-5l-102 -166h-215z" />
    <glyph glyph-name="scircumflex" unicode="&#x15d;" horiz-adv-x="925" 
d="M55 129l119 182q5 -5 13.5 -12.5t37.5 -27t60 -34.5t78.5 -27.5t95.5 -12.5q58 0 97.5 25t39.5 69q0 31 -28 57t-73 46t-99 41.5t-108 49.5t-99 63.5t-73 90.5t-28 123q0 142 112.5 224.5t286.5 82.5q66 0 126.5 -12.5t99.5 -29.5t68.5 -34.5t42.5 -30.5l14 -12l-97 -192
q-4 4 -11.5 10t-32.5 21.5t-53 27.5t-71 21.5t-88 9.5q-56 0 -94.5 -24t-38.5 -70q0 -29 28 -54t73 -44.5t99 -40t108 -49t99 -63.5t73 -90.5t28 -123.5q0 -134 -109 -224t-290 -90q-73 0 -141.5 16t-114.5 38.5t-81.5 45t-51.5 38.5zM147 1174l189 278h260l190 -278h-215
l-102 165h-4l-103 -165h-215z" />
    <glyph glyph-name="Scedilla" unicode="&#x15e;" horiz-adv-x="1134" 
d="M74 174l143 199q6 -6 18 -16.5t50.5 -37t78.5 -47t99.5 -37t116.5 -16.5q89 0 150 45.5t61 130.5q0 52 -38 94.5t-98.5 73t-133.5 61t-146.5 68t-134 84t-98.5 118.5t-38 163q0 181 139.5 301.5t348.5 120.5q80 0 154.5 -16t123 -39t85.5 -46t54 -39l17 -16l-115 -215
q-6 5 -16.5 13.5t-44 30.5t-69 39t-88 30.5t-103.5 13.5q-93 0 -156 -49t-63 -125q0 -41 23.5 -75t63 -59t91 -48t108 -46.5t113 -49.5t108 -61.5t91 -79t63 -105.5t23.5 -136q0 -166 -111.5 -284.5t-304.5 -136.5l-14 -70q67 -8 108 -47.5t41 -108.5q0 -94 -63.5 -137
t-157.5 -43q-31 0 -62.5 3.5t-46.5 6.5l-16 4v144q43 -17 88 -17q90 0 90 58q0 55 -98 55l-43 -4l43 156q-79 6 -152.5 28.5t-122.5 50t-86.5 53.5t-54.5 44z" />
    <glyph glyph-name="scedilla" unicode="&#x15f;" horiz-adv-x="925" 
d="M55 129l119 182q5 -5 13.5 -12.5t37.5 -27t60 -34.5t78.5 -27.5t95.5 -12.5q58 0 97.5 25t39.5 69q0 31 -28 57t-73 46t-99 41.5t-108 49.5t-99 63.5t-73 90.5t-28 123q0 142 112.5 224.5t286.5 82.5q66 0 126.5 -12.5t99.5 -29.5t68.5 -34.5t42.5 -30.5l14 -12l-97 -192
q-4 4 -11.5 10t-32.5 21.5t-53 27.5t-71 21.5t-88 9.5q-56 0 -94.5 -24t-38.5 -70q0 -29 28 -54t73 -44.5t99 -40t108 -49t99 -63.5t73 -90.5t28 -123.5q0 -124 -93 -210.5t-251 -101.5l-14 -67q67 -8 108 -47.5t41 -108.5q0 -94 -63.5 -137t-157.5 -43q-31 0 -62.5 3.5
t-47.5 6.5l-15 4v144q43 -17 88 -17q90 0 90 58q0 55 -98 55l-43 -4l43 156q-60 7 -115.5 25t-93 38.5t-66 40t-42.5 32.5z" />
    <glyph glyph-name="Scaron" unicode="&#x160;" horiz-adv-x="1134" 
d="M74 174l143 199q6 -6 18 -16.5t50.5 -37t78.5 -47t99.5 -37t116.5 -16.5q89 0 150 45.5t61 130.5q0 52 -38 94.5t-98.5 73t-133.5 61t-146.5 68t-134 84t-98.5 118.5t-38 163q0 181 139.5 301.5t348.5 120.5q80 0 154.5 -16t123 -39t85.5 -46t54 -39l17 -16l-115 -215
q-6 5 -16.5 13.5t-44 30.5t-69 39t-88 30.5t-103.5 13.5q-93 0 -156 -49t-63 -125q0 -41 23.5 -75t63 -59t91 -48t108 -46.5t113 -49.5t108 -61.5t91 -79t63 -105.5t23.5 -136q0 -180 -130 -303t-350 -123q-91 0 -176 20.5t-141.5 49.5t-100 58.5t-63.5 50.5zM444 1550
l-188 279h215l102 -166h5l102 166h215l-190 -279h-261z" />
    <glyph glyph-name="scaron" unicode="&#x161;" horiz-adv-x="925" 
d="M55 129l119 182q5 -5 13.5 -12.5t37.5 -27t60 -34.5t78.5 -27.5t95.5 -12.5q58 0 97.5 25t39.5 69q0 31 -28 57t-73 46t-99 41.5t-108 49.5t-99 63.5t-73 90.5t-28 123q0 142 112.5 224.5t286.5 82.5q66 0 126.5 -12.5t99.5 -29.5t68.5 -34.5t42.5 -30.5l14 -12l-97 -192
q-4 4 -11.5 10t-32.5 21.5t-53 27.5t-71 21.5t-88 9.5q-56 0 -94.5 -24t-38.5 -70q0 -29 28 -54t73 -44.5t99 -40t108 -49t99 -63.5t73 -90.5t28 -123.5q0 -134 -109 -224t-290 -90q-73 0 -141.5 16t-114.5 38.5t-81.5 45t-51.5 38.5zM336 1174l-189 278h215l103 -166h4
l102 166h215l-190 -278h-260z" />
    <glyph glyph-name="Tcommaaccent" unicode="&#x162;" horiz-adv-x="1234" 
d="M485 0v1227h-477v227h1219v-227h-477v-1227h-68l-20 -90q67 -8 108 -47.5t41 -108.5q0 -94 -63.5 -137t-157.5 -43q-31 0 -62.5 3.5t-47.5 6.5l-15 4v144q43 -17 88 -17q90 0 90 58q0 55 -98 55l-43 -4l49 176h-66z" />
    <glyph glyph-name="tcommaaccent" unicode="&#x163;" horiz-adv-x="774" 
d="M190 383v438h-135v207h142v301h254v-301h237v-207h-237v-405q0 -49 15 -86t36.5 -57.5t51 -33.5t54 -16.5t49.5 -3.5l48 4v-227q-31 -6 -80 -6q-67 0 -121 10l-21 -90q67 -8 108.5 -47.5t41.5 -108.5q0 -94 -63.5 -137t-157.5 -43q-31 0 -62.5 3.5t-47.5 6.5l-15 4v144
q43 -17 88 -17q90 0 90 58q0 55 -98 55l-43 -4l59 215q-193 91 -193 344z" />
    <glyph glyph-name="Tcaron" unicode="&#x164;" horiz-adv-x="1234" 
d="M485 0v1227h-477v227h1219v-227h-477v-1227h-265zM483 1550l-188 279h215l102 -166h4l103 166h215l-191 -279h-260z" />
    <glyph glyph-name="tcaron" unicode="&#x165;" horiz-adv-x="772" 
d="M188 383v438h-135v207h142v301h254v-301h237v-207h-237v-405q0 -49 15 -86t36.5 -57.5t51 -33.5t54 -16.5t49.5 -3.5l47 4v-227q-30 -6 -79 -6q-36 0 -70.5 3t-79 13.5t-83 27.5t-77 47.5t-65 70.5t-43.5 99.5t-17 131.5zM557 1454h215q14 -55 14 -106q0 -85 -53 -191
h-192q41 103 41 172q0 60 -25 125z" />
    <glyph glyph-name="Tbar" unicode="&#x166;" horiz-adv-x="1275" 
d="M197 604v197h309v426h-477v227h1216v-227h-477v-426h319v-197h-319v-604h-262v604h-309z" />
    <glyph glyph-name="tbar" unicode="&#x167;" horiz-adv-x="817" 
d="M68 489v173h149v159h-135v207h141v301h254v-301h238v-207h-238v-159h223v-173h-223v-86q0 -56 21.5 -95.5t56 -57t65.5 -24.5t64 -7l47 4v-227q-31 -6 -80 -6q-36 0 -70 3t-79 13.5t-83 27.5t-76.5 47.5t-65 70.5t-43.5 99.5t-17 131.5v106h-149z" />
    <glyph glyph-name="Utilde" unicode="&#x168;" horiz-adv-x="1501" 
d="M164 522v932h264v-932q0 -144 87 -224.5t235 -80.5q149 0 236 80.5t87 226.5v930h264v-932q0 -245 -161.5 -396t-423.5 -151q-264 0 -426 151t-162 396zM379 1552q0 281 229 281q46 0 86 -21t63 -45.5t52.5 -45.5t56.5 -21q40 0 60 36.5t20 90.5h176q0 -281 -229 -281
q-46 0 -86 21t-63 45.5t-52.5 45.5t-56.5 21q-40 0 -59 -35.5t-19 -91.5h-178z" />
    <glyph glyph-name="utilde" unicode="&#x169;" horiz-adv-x="1247" 
d="M129 373v671h260v-618q0 -104 35.5 -158.5t126.5 -54.5q135 0 214 102.5t79 249.5v479h260v-1044h-250v119l4 74h-4q-42 -89 -139 -153.5t-223 -64.5q-363 0 -363 398zM246 1176q0 280 229 280q46 0 86 -21t63 -45.5t52.5 -45.5t56.5 -21q40 0 60 36.5t20 90.5h176
q0 -281 -229 -281q-46 0 -86 21t-63 46t-52.5 46t-56.5 21q-40 0 -59 -35.5t-19 -91.5h-178z" />
    <glyph glyph-name="Umacron" unicode="&#x16a;" horiz-adv-x="1501" 
d="M164 522v932h264v-932q0 -144 87 -224.5t235 -80.5q149 0 236 80.5t87 226.5v930h264v-932q0 -245 -161.5 -396t-423.5 -151q-264 0 -426 151t-162 396zM483 1604v178h537v-178h-537z" />
    <glyph glyph-name="umacron" unicode="&#x16b;" horiz-adv-x="1247" 
d="M129 373v671h260v-618q0 -104 35.5 -158.5t126.5 -54.5q135 0 214 102.5t79 249.5v479h260v-1044h-250v119l4 74h-4q-42 -89 -139 -153.5t-223 -64.5q-363 0 -363 398zM350 1227v178h537v-178h-537z" />
    <glyph glyph-name="Ubreve" unicode="&#x16c;" horiz-adv-x="1501" 
d="M164 522v932h264v-932q0 -144 87 -224.5t235 -80.5q149 0 236 80.5t87 226.5v930h264v-932q0 -245 -161.5 -396t-423.5 -151q-264 0 -426 151t-162 396zM752 1542q-128 0 -217 70t-89 192v25h185v-25q0 -59 35.5 -90t85.5 -31q48 0 83 31.5t35 91.5v23h185v-25
q0 -122 -88 -192t-215 -70z" />
    <glyph glyph-name="ubreve" unicode="&#x16d;" horiz-adv-x="1247" 
d="M129 373v671h260v-618q0 -104 35.5 -158.5t126.5 -54.5q135 0 214 102.5t79 249.5v479h260v-1044h-250v119l4 74h-4q-42 -89 -139 -153.5t-223 -64.5q-363 0 -363 398zM618 1165q-128 0 -216.5 70t-88.5 192v25h185v-25q0 -59 35 -89.5t85 -30.5q48 0 83.5 31.5
t35.5 91.5v22h185v-25q0 -122 -88.5 -192t-215.5 -70z" />
    <glyph glyph-name="Uring" unicode="&#x16e;" horiz-adv-x="1501" 
d="M164 522v932h264v-932q0 -144 87 -224.5t235 -80.5q149 0 236 80.5t87 226.5v930h264v-932q0 -245 -161.5 -396t-423.5 -151q-264 0 -426 151t-162 396zM752 1526q-79 0 -137 43t-58 117q0 75 58 118t137 43q78 0 135 -43t57 -118q0 -74 -57.5 -117t-134.5 -43zM752 1616
q31 0 50 19.5t19 50.5q0 32 -19 51.5t-50 19.5t-50.5 -19.5t-19.5 -51.5q0 -31 19 -50.5t51 -19.5z" />
    <glyph glyph-name="uring" unicode="&#x16f;" horiz-adv-x="1247" 
d="M129 373v671h260v-618q0 -104 35.5 -158.5t126.5 -54.5q135 0 214 102.5t79 249.5v479h260v-1044h-250v119l4 74h-4q-42 -89 -139 -153.5t-223 -64.5q-363 0 -363 398zM618 1149q-79 0 -136.5 43t-57.5 117q0 75 57.5 118t136.5 43q78 0 135.5 -43t57.5 -118
q0 -74 -58 -117t-135 -43zM618 1239q31 0 50.5 19.5t19.5 50.5q0 32 -19.5 51.5t-50.5 19.5t-50 -19.5t-19 -51.5q0 -31 18.5 -50.5t50.5 -19.5z" />
    <glyph glyph-name="Uhungarumlaut" unicode="&#x170;" horiz-adv-x="1501" 
d="M164 522v932h264v-932q0 -144 87 -224.5t235 -80.5q149 0 236 80.5t87 226.5v930h264v-932q0 -245 -161.5 -396t-423.5 -151q-264 0 -426 151t-162 396zM799 1550l155 279h256l-213 -279h-198zM440 1550l146 279h221l-152 -279h-215z" />
    <glyph glyph-name="uhungarumlaut" unicode="&#x171;" horiz-adv-x="1247" 
d="M129 373v671h260v-618q0 -104 35.5 -158.5t126.5 -54.5q135 0 214 102.5t79 249.5v479h260v-1044h-250v119l4 74h-4q-42 -89 -139 -153.5t-223 -64.5q-363 0 -363 398zM666 1174l155 278h256l-213 -278h-198zM307 1174l146 278h221l-152 -278h-215z" />
    <glyph glyph-name="Uogonek" unicode="&#x172;" horiz-adv-x="1497" 
d="M657 -229q0 105 107 200v4h-14q-264 0 -425 151t-161 396v932h262v-932q0 -144 87 -224.5t235 -80.5q149 0 236 80.5t87 226.5v930h262v-932q0 -80 -18 -149.5t-43 -116t-67 -91.5t-75 -70.5t-81 -57.5q-85 -56 -131 -102t-46 -95q0 -29 25 -47.5t49 -22.5l25 -3
l-62 -193q-5 0 -14 1.5t-35.5 7.5t-50 14t-53 23.5t-50 35t-35 49.5t-14.5 66z" />
    <glyph glyph-name="uogonek" unicode="&#x173;" horiz-adv-x="1247" 
d="M129 373v671h260v-618q0 -104 35.5 -158.5t126.5 -54.5q135 0 214 102.5t79 249.5v479h260v-1044q-115 -97 -115 -160q0 -29 24.5 -47.5t48.5 -22.5l25 -3l-61 -193q-5 0 -14 1.5t-35.5 7.5t-50 14t-53 23.5t-50 35t-35 49.5t-14.5 66q0 110 133 225v4h-53v119l4 74h-4
q-42 -89 -139 -153.5t-223 -64.5q-363 0 -363 398z" />
    <glyph glyph-name="Wcircumflex" unicode="&#x174;" horiz-adv-x="1978" 
d="M1102 1454l258 -1005q10 -37 16 -76t8 -59l2 -19h5q6 72 24 154l240 1005h272l-375 -1454h-305l-223 860q-11 42 -20.5 89.5t-13.5 74.5l-3 27h-4q-12 -97 -37 -191l-223 -860h-305l-365 1454h273l229 -1005q8 -36 14 -74.5t9 -58.5l2 -21h4l2 19q2 20 8 59t16 76
l262 1005h230zM674 1550l188 279h260l191 -279h-215l-103 166h-4l-102 -166h-215z" />
    <glyph glyph-name="wcircumflex" unicode="&#x175;" horiz-adv-x="1681" 
d="M348 0l-319 1044h274l182 -686q6 -24 11.5 -51.5t7.5 -42.5l2 -16h4q11 55 25 110l192 684h231l193 -684l23 -110h4q8 55 22 110l182 686h271l-318 -1044h-288l-177 596l-26 113h-4q-9 -58 -25 -113l-176 -596h-291zM522 1174l189 278h260l190 -278h-215l-102 165h-4
l-103 -165h-215z" />
    <glyph glyph-name="Ycircumflex" unicode="&#x176;" horiz-adv-x="1239" 
d="M487 0v608l-483 846h299l227 -428q20 -39 42 -89t33.5 -78.5t12.5 -27.5h5q41 105 88 195l225 428h299l-483 -846v-608h-265zM301 1550l188 279h261l190 -279h-215l-102 166h-5l-102 -166h-215z" />
    <glyph glyph-name="ycircumflex" unicode="&#x177;" horiz-adv-x="1067" 
d="M2 -362l86 194q58 -43 117 -43q56 0 104 34t76 101l39 92l-440 1028h292l220 -602q9 -24 18.5 -59.5t15.5 -58.5l5 -23h4q16 82 34 137l205 606h285l-467 -1202q-53 -137 -152.5 -204.5t-224.5 -67.5q-56 0 -110 17t-81 34zM217 1174l189 278h260l190 -278h-215l-102 165
h-4l-103 -165h-215z" />
    <glyph glyph-name="Ydieresis" unicode="&#x178;" horiz-adv-x="1239" 
d="M487 0v608l-483 846h299l227 -428q20 -39 42 -89t33.5 -78.5t12.5 -27.5h5q41 105 88 195l225 428h299l-483 -846v-608h-265zM711 1591v238h198v-238h-198zM334 1591v238h201v-238h-201z" />
    <glyph glyph-name="Zacute" unicode="&#x179;" horiz-adv-x="1257" 
d="M78 0v170l645 926q25 37 51.5 70t40.5 47l14 14v4q-40 -4 -108 -4h-610v227h1050v-168l-645 -928q-25 -37 -51.5 -70t-40.5 -47l-14 -14v-4q40 4 108 4h651v-227h-1091zM539 1550l155 279h269l-215 -279h-209z" />
    <glyph glyph-name="zacute" unicode="&#x17a;" horiz-adv-x="1073" 
d="M72 0v139l469 588q21 26 43 50t34 35l11 11v4q-31 -4 -97 -4h-440v221h889v-141l-469 -588q-21 -26 -43.5 -50t-34.5 -35l-12 -11v-4q30 6 98 6h475v-221h-923zM414 1174l155 278h269l-215 -278h-209z" />
    <glyph glyph-name="Zdotaccent" unicode="&#x17b;" horiz-adv-x="1257" 
d="M78 0v170l645 926q25 37 51.5 70t40.5 47l14 14v4q-40 -4 -108 -4h-610v227h1050v-168l-645 -928q-25 -37 -51.5 -70t-40.5 -47l-14 -14v-4q40 4 108 4h651v-227h-1091zM541 1602v227h221v-227h-221z" />
    <glyph glyph-name="zdotaccent" unicode="&#x17c;" horiz-adv-x="1073" 
d="M72 0v139l469 588q21 26 43 50t34 35l11 11v4q-31 -4 -97 -4h-440v221h889v-141l-469 -588q-21 -26 -43.5 -50t-34.5 -35l-12 -11v-4q30 6 98 6h475v-221h-923zM416 1225v227h221v-227h-221z" />
    <glyph glyph-name="Zcaron" unicode="&#x17d;" horiz-adv-x="1257" 
d="M78 0v170l645 926q25 37 51.5 70t40.5 47l14 14v4q-40 -4 -108 -4h-610v227h1050v-168l-645 -928q-25 -37 -51.5 -70t-40.5 -47l-14 -14v-4q40 4 108 4h651v-227h-1091zM520 1550l-188 279h215l102 -166h4l103 166h215l-191 -279h-260z" />
    <glyph glyph-name="zcaron" unicode="&#x17e;" horiz-adv-x="1073" 
d="M72 0v139l469 588q21 26 43 50t34 35l11 11v4q-31 -4 -97 -4h-440v221h889v-141l-469 -588q-21 -26 -43.5 -50t-34.5 -35l-12 -11v-4q30 6 98 6h475v-221h-923zM395 1174l-188 278h215l102 -166h4l103 166h215l-191 -278h-260z" />
    <glyph glyph-name="longs" unicode="&#x17f;" horiz-adv-x="600" 
d="M197 0v821h-129v207h129v47q0 71 16.5 129t42.5 97.5t63.5 69.5t75 46.5t81 27t78 14t69.5 3.5q24 0 46 -1.5t32 -2.5l10 -2v-221q-23 4 -54 4q-33 0 -63 -6.5t-63.5 -23t-53.5 -53.5t-20 -91v-1065h-260z" />
    <glyph glyph-name="florin" unicode="&#x192;" horiz-adv-x="1165" 
d="M41 -4q90 -12 137 -12q25 0 49 3.5t54 15t52.5 31t40 55.5t21.5 83l45 512h-153v207h170l20 199q10 98 48 172t85.5 114t111 64.5t113 31.5t101.5 7q32 0 76 -4.5t72 -8.5l28 -4v-221q-111 14 -160 14q-26 0 -50.5 -3.5t-54.5 -15.5t-52.5 -32t-39.5 -56t-22 -83
l-16 -174h221v-207h-240l-47 -537q-6 -71 -27.5 -129.5t-51 -98t-69 -69t-78 -46.5t-83 -27.5t-79 -13.5t-70.5 -3q-30 0 -68 4t-61 8l-23 3v221z" />
    <glyph glyph-name="Scommaaccent" unicode="&#x218;" horiz-adv-x="1134" 
d="M74 174l143 199q6 -6 18 -16.5t50.5 -37t78.5 -47t99.5 -37t116.5 -16.5q89 0 150 45.5t61 130.5q0 52 -38 94.5t-98.5 73t-133.5 61t-146.5 68t-134 84t-98.5 118.5t-38 163q0 181 139.5 301.5t348.5 120.5q80 0 154.5 -16t123 -39t85.5 -46t54 -39l17 -16l-115 -215
q-6 5 -16.5 13.5t-44 30.5t-69 39t-88 30.5t-103.5 13.5q-93 0 -156 -49t-63 -125q0 -41 23.5 -75t63 -59t91 -48t108 -46.5t113 -49.5t108 -61.5t91 -79t63 -105.5t23.5 -136q0 -180 -130 -303t-350 -123q-91 0 -176 20.5t-141.5 49.5t-100 58.5t-63.5 50.5zM449 -113h215
q14 -57 14 -110q0 -90 -53 -199h-193q41 108 41 178q0 66 -24 131z" />
    <glyph glyph-name="scommaaccent" unicode="&#x219;" horiz-adv-x="925" 
d="M55 129l119 182q5 -5 13.5 -12.5t37.5 -27t60 -34.5t78.5 -27.5t95.5 -12.5q58 0 97.5 25t39.5 69q0 31 -28 57t-73 46t-99 41.5t-108 49.5t-99 63.5t-73 90.5t-28 123q0 142 112.5 224.5t286.5 82.5q66 0 126.5 -12.5t99.5 -29.5t68.5 -34.5t42.5 -30.5l14 -12l-97 -192
q-4 4 -11.5 10t-32.5 21.5t-53 27.5t-71 21.5t-88 9.5q-56 0 -94.5 -24t-38.5 -70q0 -29 28 -54t73 -44.5t99 -40t108 -49t99 -63.5t73 -90.5t28 -123.5q0 -134 -109 -224t-290 -90q-73 0 -141.5 16t-114.5 38.5t-81.5 45t-51.5 38.5zM348 -113h215q15 -61 15 -110
q0 -88 -54 -199h-192q41 108 41 178q0 63 -25 131z" />
    <glyph glyph-name="uni021A" unicode="&#x21a;" horiz-adv-x="1234" 
d="M485 0v1227h-477v227h1219v-227h-477v-1227h-265zM496 -113h215q14 -57 14 -110q0 -90 -53 -199h-193q41 108 41 178q0 66 -24 131z" />
    <glyph glyph-name="uni021B" unicode="&#x21b;" horiz-adv-x="772" 
d="M188 383v438h-135v207h142v301h254v-301h237v-207h-237v-405q0 -49 15 -86t36.5 -57.5t51 -33.5t54 -16.5t49.5 -3.5l47 4v-227q-30 -6 -79 -6q-36 0 -70.5 3t-79 13.5t-83 27.5t-77 47.5t-65 70.5t-43.5 99.5t-17 131.5zM342 -113h215q14 -57 14 -110q0 -90 -53 -199
h-192q41 108 41 178q0 63 -25 131z" />
    <glyph glyph-name="circumflex" unicode="&#x2c6;" horiz-adv-x="1011" 
d="M186 1550l189 279h260l190 -279h-215l-102 166h-4l-103 -166h-215z" />
    <glyph glyph-name="caron" unicode="&#x2c7;" horiz-adv-x="1011" 
d="M375 1550l-189 279h215l103 -166h4l102 166h215l-190 -279h-260z" />
    <glyph glyph-name="breve" unicode="&#x2d8;" horiz-adv-x="1009" 
d="M506 1542q-128 0 -216.5 70t-88.5 192v25h184v-25q0 -59 35.5 -90t85.5 -31q48 0 83.5 31.5t35.5 91.5v23h184v-25q0 -122 -88 -192t-215 -70z" />
    <glyph glyph-name="dotaccent" unicode="&#x2d9;" horiz-adv-x="1011" 
d="M395 1602v227h221v-227h-221z" />
    <glyph glyph-name="ring" unicode="&#x2da;" horiz-adv-x="1011" 
d="M506 1526q-79 0 -137 43t-58 117q0 75 58 118t137 43q78 0 135 -43t57 -118q0 -74 -57.5 -117t-134.5 -43zM506 1616q31 0 50 19.5t19 50.5q0 32 -19 51.5t-50 19.5t-50.5 -19.5t-19.5 -51.5q0 -31 19 -50.5t51 -19.5z" />
    <glyph glyph-name="ogonek" unicode="&#x2db;" horiz-adv-x="1011" 
d="M328 -229q0 46 21.5 91.5t52 78t61.5 58.5t53 39l21 13l147 -26q-6 -4 -15.5 -12t-33.5 -31t-43 -44.5t-34 -49t-15 -48.5q0 -29 25 -47.5t50 -22.5l25 -3l-63 -193q-5 0 -14 1.5t-35.5 7.5t-50 14t-53 23.5t-50 35t-35 49.5t-14.5 66z" />
    <glyph glyph-name="tilde" unicode="&#x2dc;" horiz-adv-x="1009" 
d="M133 1552q0 281 229 281q46 0 86 -21t63.5 -45.5t53 -45.5t56.5 -21q40 0 59.5 36t19.5 91h177q0 -281 -230 -281q-46 0 -86 21t-63 45.5t-52.5 45.5t-56.5 21q-40 0 -59 -35.5t-19 -91.5h-178z" />
    <glyph glyph-name="hungarumlaut" unicode="&#x2dd;" horiz-adv-x="1009" 
d="M479 1550l156 279h256l-213 -279h-199zM121 1550l145 279h221l-151 -279h-215z" />
    <glyph glyph-name="uni1E9E" unicode="&#x1e9e;" horiz-adv-x="1433" 
d="M168 0v1016q0 192 125 315t321 123h666v-182l-248 -371l-45 -63v-4l37 -3q95 -13 168.5 -74.5t111 -147.5t37.5 -179q0 -181 -129.5 -305.5t-316.5 -124.5h-305v227h287q87 0 139.5 59.5t52.5 143.5q0 83 -52 141t-140 58h-172v182l182 289q25 42 48 73.5t33 42.5l11 11
v4q-16 -4 -90 -4h-271q-79 0 -132.5 -59.5t-53.5 -147.5v-1020h-264z" />
    <glyph glyph-name="thinspace" unicode="&#x2009;" horiz-adv-x="32" 
 />
    <glyph glyph-name="endash" unicode="&#x2013;" horiz-adv-x="1452" 
d="M160 483v203h1132v-203h-1132z" />
    <glyph glyph-name="emdash" unicode="&#x2014;" horiz-adv-x="1861" 
d="M160 483v203h1542v-203h-1542z" />
    <glyph glyph-name="quoteleft" unicode="&#x2018;" horiz-adv-x="485" 
d="M82 1032l154 447h182l-96 -447h-240z" />
    <glyph glyph-name="quoteright" unicode="&#x2019;" horiz-adv-x="473" 
d="M90 1030l96 449h240l-152 -449h-184z" />
    <glyph glyph-name="quotesinglbase" unicode="&#x201a;" horiz-adv-x="512" 
d="M66 -182l96 446h233l-153 -446h-176z" />
    <glyph glyph-name="quotedblleft" unicode="&#x201c;" horiz-adv-x="821" 
d="M418 1032l151 447h185l-97 -447h-239zM82 1032l154 447h184l-98 -447h-240z" />
    <glyph glyph-name="quotedblright" unicode="&#x201d;" 
d="M426 1030l96 449h240l-152 -449h-184zM90 1030l96 449h242l-154 -449h-184z" />
    <glyph glyph-name="quotedblbase" unicode="&#x201e;" horiz-adv-x="837" 
d="M393 -182l96 446h232l-152 -446h-176zM66 -182l96 446h233l-153 -446h-176z" />
    <glyph glyph-name="dagger" unicode="&#x2020;" horiz-adv-x="909" 
d="M328 -102v944h-254v202h254v410h250v-410h258v-202h-258v-944h-250z" />
    <glyph glyph-name="daggerdbl" unicode="&#x2021;" horiz-adv-x="974" 
d="M106 334v201h254v307h-254v202h254v410h250v-410h258v-202h-258v-307h258v-201h-258v-436h-250v436h-254z" />
    <glyph glyph-name="bullet" unicode="&#x2022;" horiz-adv-x="851" 
d="M426 254q-141 0 -241.5 100.5t-100.5 241.5t100.5 241.5t241.5 100.5q142 0 242 -100.5t100 -241.5t-100 -241.5t-242 -100.5z" />
    <glyph glyph-name="ellipsis" unicode="&#x2026;" horiz-adv-x="1683" 
d="M1298 0v260h252v-260h-252zM715 0v260h252v-260h-252zM133 0v260h250v-260h-250z" />
    <glyph glyph-name="perthousand" unicode="&#x2030;" horiz-adv-x="2385" 
d="M412 831q-138 0 -236 94.5t-98 229.5q0 132 98 228t236 96t237 -96t99 -228q0 -135 -99 -229.5t-237 -94.5zM129 0l1116 1454h240l-1116 -1454h-240zM412 1020q57 0 97 39t40 96q0 56 -40 95.5t-97 39.5t-96.5 -39.5t-39.5 -95.5q0 -57 39.5 -96t96.5 -39zM1636 297
q0 133 97.5 228.5t236.5 95.5q138 0 237 -96t99 -228q0 -133 -99 -227.5t-237 -94.5q-139 0 -236.5 94t-97.5 228zM872 297q0 133 97.5 228.5t236.5 95.5q138 0 236 -96t98 -228q0 -133 -98 -227.5t-236 -94.5q-139 0 -236.5 94t-97.5 228zM1835 299q0 -57 39 -96t96 -39
t97 39t40 96q0 56 -40 95.5t-97 39.5t-96 -39.5t-39 -95.5zM1071 299q0 -57 39 -96t96 -39t97 39t40 96q0 56 -40 95.5t-97 39.5t-96 -39.5t-39 -95.5z" />
    <glyph glyph-name="guilsinglleft" unicode="&#x2039;" horiz-adv-x="737" 
d="M408 158l-336 420l336 421h247l-336 -421l336 -420h-247z" />
    <glyph glyph-name="guilsinglright" unicode="&#x203a;" horiz-adv-x="737" 
d="M82 158l336 420l-336 421h248l336 -421l-336 -420h-248z" />
    <glyph glyph-name="fraction" unicode="&#x2044;" horiz-adv-x="366" 
d="M-66 0h-190l688 1454h189z" />
    <glyph glyph-name="zerosuperior" unicode="&#x2070;" 
d="M406 846q-92 0 -158 35.5t-104 101.5t-55 148t-17 186q0 103 17 184.5t55 147.5t104 101.5t158 35.5q331 0 331 -469q0 -471 -331 -471zM406 1024q135 0 135 293q0 289 -135 289q-138 0 -138 -289q0 -293 138 -293z" />
    <glyph glyph-name="foursuperior" unicode="&#x2074;" 
d="M459 866v203h-418v131l387 565h221v-528h119v-168h-119v-203h-190zM240 1237h219v225l6 113h-4q-24 -55 -53 -96l-168 -238v-4z" />
    <glyph glyph-name="fivesuperior" unicode="&#x2075;" 
d="M391 846q-56 0 -108.5 14t-87.5 34t-61.5 40.5t-39.5 34.5l-12 14l106 137q3 -4 8 -10.5t23.5 -23t39 -29t52.5 -23t66 -10.5q64 0 111 39t47 100t-47 101.5t-115 40.5q-38 0 -74.5 -9.5t-54.5 -18.5l-17 -9l-104 39l45 458h502v-172h-344l-9 -96l-10 -51l4 -2
q44 16 105 16q138 0 226.5 -87.5t88.5 -211.5q0 -128 -93.5 -221.5t-246.5 -93.5z" />
    <glyph glyph-name="sixsuperior" unicode="&#x2076;" 
d="M432 846q-149 0 -250.5 112.5t-101.5 307.5q0 74 16 147t50 140.5t82 119t117.5 82.5t150.5 31q52 0 102 -12t74 -24l24 -11l-55 -166q-72 33 -135 33q-77 0 -131.5 -55t-73.5 -144h4q53 43 129 43q140 0 223.5 -84t83.5 -211q0 -132 -86 -220.5t-223 -88.5zM432 1024
q53 0 84 38t31 95q0 64 -38.5 108t-105.5 44q-50 0 -87 -24.5t-37 -57.5q0 -80 44.5 -141.5t108.5 -61.5z" />
    <glyph glyph-name="sevensuperior" unicode="&#x2077;" 
d="M104 866l359 650l49 77v4q-37 -4 -80 -4h-342v172h643v-133l-416 -766h-213z" />
    <glyph glyph-name="eightsuperior" unicode="&#x2078;" 
d="M68 1126q0 39 14.5 76.5t38.5 66.5t44.5 48t41.5 35q-96 72 -96 184q0 118 88 184t211 66q79 0 147 -27.5t113 -86.5t45 -138q0 -50 -27 -104.5t-45.5 -76.5t-36.5 -40q127 -76 127 -203q0 -118 -96.5 -191t-230.5 -73q-87 0 -162 30t-125.5 95.5t-50.5 154.5zM539 1120
q0 16 -5.5 30.5t-18.5 27.5t-24 22.5t-34.5 22t-37 19t-44 20.5t-43.5 20q-76 -71 -76 -145q0 -57 43.5 -91t103.5 -34q53 0 94.5 30t41.5 78zM297 1528q0 -27 12.5 -49t42.5 -41.5t52 -30t69 -31.5q59 74 59 146q0 45 -37 70.5t-85 25.5q-47 0 -80 -23t-33 -67z" />
    <glyph glyph-name="ninesuperior" unicode="&#x2079;" 
d="M70 1477q0 132 85 220.5t222 88.5q151 0 252.5 -113t101.5 -309q0 -73 -16 -146t-50 -140t-82 -118.5t-118 -82.5t-152 -31q-52 0 -102 12t-74 24l-24 11l57 166q70 -33 133 -33q77 0 131.5 54t75.5 143h-4q-57 -43 -129 -43q-141 0 -224 84.5t-83 212.5zM262 1475
q0 -63 39 -108.5t105 -45.5q51 0 87.5 25t36.5 57q0 80 -44.5 141.5t-108.5 61.5q-54 0 -84.5 -37.5t-30.5 -93.5z" />
    <glyph glyph-name="zeroinferior" unicode="&#x2080;" 
d="M406 -342q-92 0 -158 35.5t-104 101.5t-55 148t-17 186q0 103 17 184.5t55 147.5t104 101.5t158 35.5q331 0 331 -469q0 -471 -331 -471zM406 -164q135 0 135 293q0 289 -135 289q-138 0 -138 -289q0 -293 138 -293z" />
    <glyph glyph-name="oneinferior" unicode="&#x2081;" 
d="M137 -322v170h189v424l4 58h-4q-8 -19 -31 -39l-64 -60l-114 123l231 224h172v-730h187v-170h-570z" />
    <glyph glyph-name="twoinferior" unicode="&#x2082;" 
d="M98 -322q-8 58 -8 84q0 72 23.5 132t61 101t82.5 75.5t90 62t82.5 53.5t61 57.5t23.5 67.5q0 47 -36.5 77t-90.5 30q-41 0 -81.5 -23.5t-60.5 -46.5l-20 -24l-127 112q4 7 11.5 17.5t35.5 38.5t59.5 49.5t84.5 39t110 17.5q129 0 220.5 -75.5t91.5 -203.5q0 -69 -29 -126
t-72.5 -93t-95.5 -70t-96.5 -58.5t-76.5 -56.5t-36 -67h418v-170h-625z" />
    <glyph glyph-name="threeinferior" unicode="&#x2083;" 
d="M379 -342q-58 0 -110.5 14t-86.5 34t-59.5 40.5t-36.5 34.5l-12 14l102 137q3 -4 8.5 -10.5t25 -23t41 -29t55 -23t69.5 -10.5q61 0 104 37t43 92t-47 86t-113 31h-71l-41 92l162 184q7 9 19.5 21.5l20.5 20.5l9 8v4q-41 -6 -72 -6h-264v172h573v-125l-202 -230
q101 -20 162 -87t61 -173q0 -124 -94 -214.5t-246 -90.5z" />
    <glyph glyph-name="fourinferior" unicode="&#x2084;" 
d="M459 -322v203h-418v131l387 566h221v-529h119v-168h-119v-203h-190zM240 49h219v225l6 113h-4q-24 -55 -53 -96l-168 -238v-4z" />
    <glyph glyph-name="fiveinferior" unicode="&#x2085;" 
d="M391 -342q-56 0 -108.5 14t-87.5 34t-61.5 40.5t-39.5 34.5l-12 14l106 137q3 -4 8 -10.5t23.5 -23t39 -29t52.5 -23t66 -10.5q64 0 111 39t47 100t-47 101.5t-115 40.5q-38 0 -74.5 -9.5t-54.5 -18.5l-17 -9l-104 39l45 459h502v-172h-344l-9 -97l-10 -51l4 -2
q44 16 105 16q138 0 226.5 -87.5t88.5 -211.5q0 -128 -93.5 -221.5t-246.5 -93.5z" />
    <glyph glyph-name="sixinferior" unicode="&#x2086;" 
d="M432 -342q-149 0 -250.5 112.5t-101.5 307.5q0 74 16 147t50 140.5t82 119t117.5 82.5t150.5 31q52 0 102 -12t74 -24l24 -11l-55 -166q-72 33 -135 33q-77 0 -131.5 -55t-73.5 -144h4q53 43 129 43q140 0 223.5 -84t83.5 -211q0 -132 -86 -220.5t-223 -88.5zM432 -164
q53 0 84 38t31 95q0 64 -38.5 108t-105.5 44q-50 0 -87 -24.5t-37 -57.5q0 -80 44.5 -141.5t108.5 -61.5z" />
    <glyph glyph-name="seveninferior" unicode="&#x2087;" 
d="M104 -322l359 650l49 78v4q-37 -4 -80 -4h-342v172h643v-134l-416 -766h-213z" />
    <glyph glyph-name="eightinferior" unicode="&#x2088;" 
d="M68 -61q0 123 139 225q-96 72 -96 184q0 118 88 184t211 66q79 0 147 -27.5t113 -86.5t45 -138q0 -50 -27 -104.5t-45.5 -76.5t-36.5 -40q127 -76 127 -203q0 -118 -96.5 -191t-230.5 -73q-87 0 -162 30.5t-125.5 96t-50.5 154.5zM539 -68q0 16 -5.5 30.5t-18.5 27.5
t-24 22.5t-34.5 22t-37 19t-44 20.5t-43.5 20q-76 -71 -76 -145q0 -57 43.5 -91t103.5 -34q53 0 94.5 30t41.5 78zM297 340q0 -27 12.5 -49t42.5 -41.5t52 -30t69 -31.5q59 74 59 146q0 45 -37 70.5t-85 25.5q-47 0 -80 -23t-33 -67z" />
    <glyph glyph-name="nineinferior" unicode="&#x2089;" 
d="M70 289q0 132 85 220.5t222 88.5q151 0 252.5 -113t101.5 -309q0 -73 -16 -146t-50 -140t-82 -118.5t-118 -82.5t-152 -31q-52 0 -102 12t-74 24l-24 11l57 166q70 -33 133 -33q77 0 131.5 54t75.5 143h-4q-57 -43 -129 -43q-141 0 -224 84.5t-83 212.5zM262 287
q0 -63 39 -108.5t105 -45.5q51 0 87.5 25t36.5 57q0 80 -44.5 141.5t-108.5 61.5q-54 0 -84.5 -37.5t-30.5 -93.5z" />
    <glyph glyph-name="Euro" unicode="&#x20ac;" horiz-adv-x="1206" 
d="M63 512v156h115q-9 52 -2 127h-113v157h142q67 233 258.5 380t441.5 147q52 0 106.5 -6.5t83.5 -13.5l29 -7l-63 -240q-78 21 -162 21q-145 0 -253.5 -75.5t-158.5 -205.5h523l-31 -157h-528q-8 -55 2 -127h499l-30 -156h-424q50 -131 160.5 -209t250.5 -78
q45 0 92.5 7.5t72.5 14.5l24 7l49 -242q-105 -37 -242 -37q-259 0 -447.5 148t-252.5 389h-142z" />
    <glyph glyph-name="trademark" unicode="&#x2122;" horiz-adv-x="1937" 
d="M893 547l72 907h182l186 -428l29 -86h4q13 51 27 86l188 428h180l70 -907h-195l-34 467l2 63h-5l-159 -364h-154l-160 364h-4l2 -63l-37 -467h-194zM340 547v735h-303v172h801v-172h-301v-735h-197z" />
    <glyph glyph-name="minus" unicode="&#x2212;" horiz-adv-x="1267" 
d="M94 483v203h1082v-203h-1082z" />
    <glyph glyph-name="infinity" unicode="&#x221e;" horiz-adv-x="1058" 
d="M530 322q-161 0 -277 116t-116 277q0 162 115.5 276.5t277.5 114.5q163 0 276.5 -114t113.5 -277q0 -162 -114 -277.5t-276 -115.5z" />
    <glyph glyph-name="approxequal" unicode="&#x2248;" horiz-adv-x="1267" 
d="M213 659l-100 152q65 67 148 111.5t171 44.5q53 0 101.5 -15t84 -36t69.5 -42t72.5 -36t78.5 -15q58 0 117 32.5t102 80.5l102 -154q-155 -155 -321 -155q-65 0 -124.5 22.5t-97 49t-87 49t-97.5 22.5q-57 0 -115 -31.5t-104 -79.5zM213 240l-100 153q66 66 148.5 110
t170.5 44q53 0 101.5 -15t84 -36t69.5 -42t72.5 -36t78.5 -15q58 0 117 32.5t102 80.5l102 -154q-157 -153 -321 -153q-65 0 -124.5 22.5t-97 49t-87 49t-97.5 22.5q-57 0 -115 -32t-104 -80z" />
    <glyph glyph-name="notequal" unicode="&#x2260;" horiz-adv-x="1267" 
d="M242 129l100 145h-207v201h338l152 219h-490v201h623l155 229l125 -82l-102 -147h199v-201h-330l-152 -219h482v-201h-613l-153 -225z" />
    <glyph glyph-name="lessequal" unicode="&#x2264;" horiz-adv-x="1267" 
d="M131 502v168l985 438v-227l-710 -293v-4l710 -293v-228zM135 -174h981v-201h-981v201z" />
    <glyph glyph-name="greaterequal" unicode="&#x2265;" horiz-adv-x="1267" 
d="M154 63v228l710 293v4l-710 293v227l985 -438v-168zM154 -174h983v-201h-983v201z" />
    <glyph glyph-name="commaaccent" horiz-adv-x="686" 
d="M242 -113h215q14 -57 14 -110q0 -90 -53 -199h-193q41 108 41 178q0 66 -24 131z" />
    <glyph glyph-name="apple" horiz-adv-x="2314" 
d="M344 -10v311l-258 148v569l258 145v310l543 290l274 -145l271 145l542 -290v-310l254 -145v-569l-254 -148v-311l-542 -289l-271 145l-274 -145zM426 61l487 -258l248 136l242 -136l487 258v285l234 131v510l-234 135v279l-487 258l-242 -131l-248 131l-487 -258v-279
l-233 -135v-510l233 -131v-285zM496 131v248l-203 123v461l203 118v252l440 234l225 -121l219 121l439 -234v-252l204 -118v-461l-204 -123v-248l-439 -233l-219 118l-225 -118zM887 186h203v392h397v172h-397v309h256q26 0 34.5 -11t8.5 -38v-60h182v176q0 56 -23.5 80.5
t-81.5 24.5h-690v-172h111v-873z" />
    <glyph glyph-name="zero.tnum" horiz-adv-x="1196" 
d="M600 -25q-116 0 -207 38.5t-150 106t-97.5 164t-55 206t-16.5 239.5t16.5 239t55 205t97.5 162.5t150 105t207 38.5t207 -38.5t150.5 -105t98.5 -162.5t55.5 -205t16.5 -239t-16.5 -239.5t-55.5 -206t-98.5 -164t-150.5 -106t-207 -38.5zM600 217q256 0 256 512
q0 506 -256 506t-256 -506q0 -512 256 -512z" />
    <glyph glyph-name="one.tnum" horiz-adv-x="1196" 
d="M184 0v227h316v807l2 99h-4q-17 -35 -64 -82l-117 -111l-155 164l364 350h232v-1227h315v-227h-889z" />
    <glyph glyph-name="two.tnum" horiz-adv-x="1196" 
d="M133 0q-12 94 -12 129q0 106 37.5 198.5t97.5 158.5t132.5 124t145 107t132.5 95.5t97.5 101t37.5 112.5q0 93 -63 148t-158 55q-48 0 -92.5 -17.5t-74 -43t-52.5 -51t-33 -43.5l-11 -17l-196 131q5 12 16 31.5t53 69.5t92 88.5t136.5 70t183.5 31.5q200 0 336.5 -116
t136.5 -314q0 -95 -36 -177.5t-93.5 -142.5t-127 -113t-139.5 -98.5t-128 -89t-95 -95t-38 -106.5h680v-227h-965z" />
    <glyph glyph-name="three.tnum" horiz-adv-x="1196" 
d="M96 170l135 203l16 -16t44 -35.5t70.5 -45t91 -35.5t108.5 -16q114 0 188 61.5t74 155.5q0 110 -88 168t-223 58h-100l-60 135l266 315q25 30 51.5 58t40.5 40l13 13v4q-43 -6 -129 -6h-434v227h889v-166l-357 -411q77 -11 147 -43.5t127 -84t90.5 -128.5t33.5 -168
q0 -94 -35 -179.5t-99 -152.5t-162 -106.5t-216 -39.5q-87 0 -168 20t-135.5 48.5t-97 57.5t-61.5 49z" />
    <glyph glyph-name="four.tnum" horiz-adv-x="1196" 
d="M39 375v162l627 917h313v-860h188v-219h-188v-375h-260v375h-680zM317 594h402v450q0 32 2.5 70t4.5 60l3 22h-4q-33 -78 -72 -133l-336 -465v-4z" />
    <glyph glyph-name="five.tnum" horiz-adv-x="1196" 
d="M98 172l135 199q5 -6 14.5 -16t40.5 -35t65 -44t85.5 -35t104.5 -16q111 0 192.5 68.5t81.5 179.5q0 112 -83.5 182t-209.5 70q-57 0 -113.5 -15.5t-84.5 -30.5l-27 -15l-145 53l67 737h764v-227h-536l-23 -240l-10 -67h4q67 32 155 32q234 0 373 -137t139 -340
q0 -216 -148.5 -358t-375.5 -142q-63 0 -122.5 11t-104.5 28t-85 38t-67 42.5t-47 38.5t-29 28z" />
    <glyph glyph-name="six.tnum" horiz-adv-x="1196" 
d="M645 -25q-114 0 -215.5 47t-178.5 133.5t-122 218.5t-45 292q0 116 26 230.5t80.5 220t132 186t189 128.5t242.5 48q82 0 156 -15.5t108 -31.5l33 -15l-78 -227q-92 45 -205 45q-83 0 -151.5 -32.5t-114.5 -88t-76.5 -123t-44.5 -145.5h4q38 44 116 73t156 29
q139 0 247 -67t164 -176.5t56 -241.5q0 -101 -34.5 -190t-96 -155t-152 -104.5t-196.5 -38.5zM645 217q99 0 158 70t59 176q0 116 -70 192t-196 76q-99 0 -168.5 -45.5t-69.5 -112.5q0 -138 86.5 -247t200.5 -109z" />
    <glyph glyph-name="seven.tnum" horiz-adv-x="1196" 
d="M203 0l545 1094q20 40 42 73t34 47l12 13v4q-29 -4 -101 -4h-620v227h999v-184l-637 -1270h-274z" />
    <glyph glyph-name="eight.tnum" horiz-adv-x="1196" 
d="M76 422q0 72 26.5 139.5t67.5 116t70 75t55 44.5q-150 116 -150 284q0 77 29 147t84.5 127t147 90.5t206.5 33.5q207 0 339 -109.5t132 -294.5q0 -51 -16.5 -106t-35 -92.5t-47.5 -79.5t-39 -53.5t-23 -26.5q186 -119 186 -309q0 -84 -35 -161.5t-98.5 -138.5t-162 -97
t-216.5 -36q-232 0 -376 128t-144 319zM840 420q0 31 -16 59t-36.5 48t-62.5 44t-71.5 38t-86.5 39.5t-86 39.5q-135 -112 -135 -246q0 -101 74 -167t176 -66q104 0 174 58t70 153zM406 1075q0 -36 16 -67.5t40 -54t65.5 -46.5t77 -40.5t89.5 -39.5q22 -9 33 -14
q98 113 98 246q0 84 -59 134t-158 50q-96 0 -149 -47t-53 -121z" />
    <glyph glyph-name="nine.tnum" horiz-adv-x="1196" 
d="M446 -25q-82 0 -156 15.5t-107 31.5l-33 15l77 227q10 -5 28.5 -13t72 -21t102.5 -13q83 0 151.5 32.5t115.5 88t77.5 123t44.5 145.5h-4q-38 -44 -116.5 -73t-157.5 -29q-139 0 -246.5 67.5t-163 177.5t-55.5 242q0 134 58.5 245t169 177t251.5 66q114 0 215.5 -47
t178.5 -133.5t122 -218.5t45 -292q0 -116 -26 -230.5t-80.5 -220t-132 -186t-189 -128.5t-242.5 -48zM604 721q99 0 168.5 46t69.5 112q0 138 -87 247t-200 109q-99 0 -159 -69.5t-60 -174.5q0 -116 70.5 -193t197.5 -77z" />
    <glyph glyph-name="hyphen.case" horiz-adv-x="1005" 
d="M195 598v227h616v-227h-616z" />
    <glyph glyph-name="parenleft.case" horiz-adv-x="714" 
d="M635 -133h-221q-116 190 -180 420t-64 477q0 430 244 815h221q-232 -385 -232 -817q0 -469 232 -895z" />
    <glyph glyph-name="parenright.case" horiz-adv-x="714" 
d="M301 -133h-221q231 425 231 895q0 434 -231 817h221q244 -385 244 -815q0 -247 -64 -477t-180 -420z" />
    <glyph glyph-name="bracketleft.case" horiz-adv-x="759" 
d="M227 -133v1712h404v-188h-182v-1336h182v-188h-404z" />
    <glyph glyph-name="bracketright.case" horiz-adv-x="759" 
d="M532 1579v-1712h-403v188h180v1336h-180v188h403z" />
    <glyph glyph-name="braceleft.case" horiz-adv-x="854" 
d="M303 207v199q0 57 -18 100t-43.5 63.5t-51 32.5t-43.5 14l-18 2v228q7 0 19 2t42 14.5t52.5 33.5t41.5 64.5t19 102.5v176q0 89 27.5 155t66 101.5t92 57t94 27t83.5 5.5l63 -2v-192q-17 2 -37 2t-39 -3t-43.5 -13.5t-42.5 -28.5t-30.5 -51.5t-12.5 -77.5v-224
q0 -57 -17.5 -105t-42 -75.5t-49 -46.5t-41.5 -26l-18 -7v-4q7 -2 18 -6.5t40 -24t51.5 -45.5t40.5 -74.5t18 -107.5v-246q0 -45 12.5 -78.5t30.5 -51t42.5 -28.5t43.5 -13.5t39 -2.5l37 2v-192q-26 -4 -63 -4q-43 0 -83.5 5.5t-94 27t-92 57t-66 102.5t-27.5 156z" />
    <glyph glyph-name="braceright.case" horiz-adv-x="854" 
d="M125 55q17 -2 37 -2t38.5 2.5t43 13.5t42 28.5t30 51t12.5 78.5v246q0 59 17.5 107.5t42.5 75t50 45t42 24.5l18 6v4q-7 2 -18.5 7t-40.5 25.5t-51.5 47t-41 75t-18.5 105.5v224q0 55 -17.5 92.5t-46 53.5t-52.5 22t-50 6l-37 -2v192q26 2 63 2q43 0 83.5 -5.5t94 -27
t92 -57t66 -101.5t27.5 -155v-176q0 -59 18 -102.5t43.5 -64.5t51 -33.5t43.5 -14.5l18 -2v-228q-7 0 -19 -2t-42 -14t-52.5 -32.5t-41.5 -63.5t-19 -100v-199q0 -89 -27.5 -156t-66 -102.5t-92 -57t-94 -27t-83.5 -5.5l-63 4v192z" />
    <glyph glyph-name="at.case" horiz-adv-x="1736" 
d="M135 723q0 157 59.5 298t162 243t245.5 161.5t303 59.5q151 0 263 -35.5t176 -99t94 -140.5t30 -170v-512h150v-186h-567q-100 0 -184.5 32t-140 85t-86 121.5t-30.5 142.5q0 154 119.5 264.5t321.5 110.5h174q-3 79 -90.5 129.5t-221.5 50.5q-145 0 -266 -78
t-188.5 -205t-67.5 -272q0 -150 66.5 -274.5t194.5 -199.5t294 -75v-203q-179 0 -331.5 58.5t-257 159.5t-163.5 239.5t-59 294.5zM868 729q0 -85 55.5 -143t143.5 -58h158v402h-154q-90 0 -146.5 -58.5t-56.5 -142.5z" />
    <glyph glyph-name="guillemotleft.case" horiz-adv-x="1277" 
d="M907 281l-336 419l336 422h248l-336 -422l336 -419h-248zM449 281l-336 419l336 422h247l-336 -422l336 -419h-247z" />
    <glyph glyph-name="guillemotright.case" horiz-adv-x="1280" 
d="M584 281l336 419l-336 422h247l336 -422l-336 -419h-247zM123 281l336 419l-336 422h248l336 -422l-336 -419h-248z" />
    <glyph glyph-name="guilsinglleft.case" horiz-adv-x="819" 
d="M449 281l-336 419l336 422h247l-336 -422l336 -419h-247z" />
    <glyph glyph-name="guilsinglright.case" horiz-adv-x="819" 
d="M123 281l336 419l-336 422h248l336 -422l-336 -419h-248z" />
    <glyph glyph-name="endash.case" horiz-adv-x="1521" 
d="M195 606v203h1132v-203h-1132z" />
    <glyph glyph-name="emdash.case" horiz-adv-x="1931" 
d="M195 606v203h1542v-203h-1542z" />
    <glyph glyph-name="periodcentered.case" horiz-adv-x="632" 
d="M190 578v260h252v-260h-252z" />
    <glyph glyph-name="questiondown.case" horiz-adv-x="1071" 
d="M489 1212v242h250v-242h-250zM131 360q0 68 19.5 126.5t51.5 100.5t70 79t76 70t70 65t51.5 72t19.5 85v76h250v-94q0 -60 -18.5 -112.5t-48 -91t-65.5 -73.5t-72 -66t-65.5 -62t-48 -69.5t-18.5 -80.5q0 -72 57.5 -122t141.5 -50q52 0 106 22t82 44l29 22l146 -180
q-6 -6 -17 -16t-48.5 -35t-79.5 -44t-107 -35t-133 -16q-118 0 -219 44.5t-165.5 134t-64.5 206.5z" />
    <glyph glyph-name="exclamdown.case" horiz-adv-x="731" 
d="M240 1212v242h249v-242h-249zM229 0l23 1034h227l21 -1034h-271z" />
    <glyph glyph-name="bullet.case" horiz-adv-x="933" 
d="M467 383q-141 0 -241.5 100.5t-100.5 241.5q0 142 100.5 242t241.5 100q143 0 242.5 -99.5t99.5 -242.5q0 -141 -100 -241.5t-242 -100.5z" />
    <glyph glyph-name="zero.p_osf" horiz-adv-x="1200" 
d="M94 561q0 114 30.5 217t90 188t159 135t226.5 50q103 0 188 -33.5t142.5 -90t97.5 -133t58 -160.5t18 -175t-18 -174.5t-58 -158.5t-97.5 -130.5t-142.5 -88t-188 -32.5q-128 0 -227.5 50t-159 134t-89.5 186t-30 216zM356 563q0 -71 14 -134.5t42 -116.5t76.5 -84
t111.5 -31t111.5 31t76.5 83.5t42 115.5t14 134t-14 135t-42 117.5t-76.5 85t-111.5 31.5q-84 0 -141 -55.5t-80 -135t-23 -176.5z" />
    <glyph glyph-name="one.p_osf" horiz-adv-x="1009" 
d="M125 0v221h303v510l2 133h-4q-31 -32 -78 -61l-158 -92l-118 178l383 237h225v-905h278v-221h-833z" />
    <glyph glyph-name="two.p_osf" horiz-adv-x="1107" 
d="M106 0v176q99 64 171 113.5t158.5 116.5t141 122t91.5 116.5t37 113.5q0 83 -57 124.5t-140 41.5q-45 0 -92 -15.5t-81.5 -37.5t-63 -44t-43.5 -37l-15 -16l-137 170q7 8 20.5 22t59 50t96 63t129.5 49.5t162 22.5q179 0 302.5 -98t123.5 -260q0 -72 -25 -139t-65.5 -123
t-105 -112.5t-131 -102.5t-155.5 -99v-4q43 8 129 8h406v-221h-916z" />
    <glyph glyph-name="three.p_osf" horiz-adv-x="1073" 
d="M20 -82l123 182q5 -6 15 -15.5t43 -33.5t68 -43t87.5 -34t104.5 -15q114 0 188 58t74 153q0 46 -18.5 84t-49 63t-70.5 42.5t-82 25.5t-85 8h-113l-57 127l244 283q24 28 50 54t40 38l14 12v4q-45 -8 -129 -8h-369v223h840v-151l-360 -395q78 -10 148 -38.5t129.5 -75.5
t94.5 -119.5t35 -160.5q0 -92 -35.5 -173.5t-100.5 -142.5t-163 -96.5t-217 -35.5q-82 0 -158.5 18.5t-127 45t-89 53t-56.5 45.5z" />
    <glyph glyph-name="four.p_osf" horiz-adv-x="1228" 
d="M49 59v162l592 905h324v-845h194v-222h-194v-297h-260v297h-656zM326 281h379v444q0 32 2.5 70t4.5 60l3 22h-4q-33 -83 -72 -138z" />
    <glyph glyph-name="five.p_osf" horiz-adv-x="1097" 
d="M49 -74l123 180q5 -6 14 -15t40 -33t64.5 -42.5t84 -33.5t102.5 -15q71 0 133 24.5t105 79.5t43 130q0 113 -82 177t-201 64q-59 0 -117 -14t-86 -28l-28 -13l-140 51l68 688h737v-223h-516l-22 -221l-11 -64h5q69 29 157 29q225 0 361.5 -121.5t136.5 -312.5
q0 -212 -147 -339.5t-375 -127.5q-83 0 -159.5 18.5t-127 45t-89 53t-56.5 45.5z" />
    <glyph glyph-name="six.p_osf" horiz-adv-x="1198" 
d="M106 610q0 111 24.5 220t77.5 210.5t128.5 178.5t185 123.5t238.5 46.5q82 0 156 -14.5t108 -28.5l33 -15l-76 -207q-94 43 -205 43q-80 0 -148 -32.5t-114.5 -87t-76.5 -120.5t-44 -139h4q37 45 116 73t159 28q137 0 243 -62t160.5 -164.5t54.5 -226.5
q0 -193 -131.5 -327t-339.5 -134q-115 0 -214.5 42t-175.5 120.5t-119.5 200.5t-43.5 272zM373 535q0 -130 82 -234t202 -104q98 0 155.5 65.5t57.5 171.5q0 108 -68.5 179t-191.5 71q-98 0 -167.5 -43t-69.5 -106z" />
    <glyph glyph-name="seven.p_osf" horiz-adv-x="1077" 
d="M147 -238l519 1020q19 38 38 69.5t28 43.5l9 12v4q-22 -6 -94 -6h-592v221h975v-174l-608 -1190h-275z" />
    <glyph glyph-name="eight.p_osf" horiz-adv-x="1200" 
d="M92 395q0 51 17 101.5t40.5 87t55.5 71.5t54.5 54t45.5 36q-147 108 -147 269q0 73 28 138.5t82 118.5t142.5 84t199.5 31q200 0 330.5 -101.5t130.5 -274.5q0 -154 -149 -340q180 -111 180 -287q0 -80 -35 -153t-97.5 -130t-159.5 -91t-212 -34q-225 0 -365.5 121
t-140.5 299zM840 391q0 25 -9 47t-30.5 42t-41.5 35t-58 34t-63 30.5t-73 32t-73 31.5q-142 -101 -142 -227q0 -96 73.5 -158.5t174.5 -62.5q102 0 172 54.5t70 141.5zM408 1010q0 -56 47 -102.5t92 -68.5t149 -63q9 -4 15.5 -6.5t13.5 -5.5q94 110 94 229q0 79 -58.5 126.5
t-152.5 47.5t-147 -44.5t-53 -112.5z" />
    <glyph glyph-name="nine.p_osf" horiz-adv-x="1204" 
d="M221 2q94 -43 205 -43q80 0 148 32.5t114.5 87t76.5 119.5t44 138h-4q-37 -43 -116 -70.5t-159 -27.5q-138 0 -243.5 61.5t-160 163t-54.5 225.5q0 195 131 329t340 134q115 0 214.5 -42t175.5 -120.5t119.5 -201t43.5 -273.5q0 -111 -25 -220t-78 -209.5t-128.5 -177.5
t-184.5 -123t-238 -46q-82 0 -156.5 14t-108.5 28l-34 15zM592 442q98 0 166.5 42.5t68.5 105.5q0 131 -81.5 235.5t-200.5 104.5q-98 0 -156.5 -66t-58.5 -172q0 -107 69.5 -178.5t192.5 -71.5z" />
    <glyph glyph-name="zero.t_osf" horiz-adv-x="1196" 
d="M94 561q0 114 30.5 217t90 188t159 135t226.5 50q103 0 188 -33.5t142.5 -90t97.5 -133t58 -160.5t18 -175t-18 -174.5t-58 -158.5t-97.5 -130.5t-142.5 -88t-188 -32.5q-128 0 -227.5 50t-159 134t-89.5 186t-30 216zM356 563q0 -71 14 -134.5t42 -116.5t76.5 -84
t111.5 -31t111.5 31t76.5 83.5t42 115.5t14 134t-14 135t-42 117.5t-76.5 85t-111.5 31.5q-84 0 -141 -55.5t-80 -135t-23 -176.5z" />
    <glyph glyph-name="one.t_osf" horiz-adv-x="1196" 
d="M231 0v221h304v510l2 133h-5q-30 -32 -77 -61l-158 -92l-119 178l383 237h225v-905h279v-221h-834z" />
    <glyph glyph-name="two.t_osf" horiz-adv-x="1196" 
d="M160 0v176q99 64 171 113.5t158 116.5t140.5 122t91.5 116.5t37 113.5q0 83 -57 124.5t-140 41.5q-45 0 -92 -15.5t-81.5 -37.5t-63 -44t-43.5 -37l-15 -16l-137 170q7 8 20.5 22t59 50t96 63t129.5 49.5t162 22.5q179 0 302.5 -98t123.5 -260q0 -72 -24.5 -139
t-65.5 -123t-105 -112.5t-130.5 -102.5t-155.5 -99v-4q43 8 129 8h405v-221h-915z" />
    <glyph glyph-name="three.t_osf" horiz-adv-x="1196" 
d="M102 -80l123 182q5 -6 15 -15.5t43 -33.5t67.5 -43t86.5 -34t104 -15q114 0 188 58t74 153q0 57 -27.5 101t-73 69t-97.5 38t-107 13h-111l-57 127l241 283q24 28 50.5 54t40.5 38l14 12v4q-45 -8 -129 -8h-367v223h838v-151l-361 -395q78 -10 148.5 -38.5t129.5 -75.5
t94.5 -119t35.5 -159q0 -92 -35.5 -173.5t-100.5 -142.5t-163 -96.5t-217 -35.5q-81 0 -157.5 18.5t-126.5 45t-88.5 53t-56.5 45.5z" />
    <glyph glyph-name="four.t_osf" horiz-adv-x="1196" 
d="M49 59v162l592 905h324v-845h194v-222h-194v-297h-260v297h-656zM326 281h379v444q0 32 2.5 70t4.5 60l3 22h-4q-33 -83 -72 -138z" />
    <glyph glyph-name="five.t_osf" horiz-adv-x="1196" 
d="M111 -74l122 180q5 -6 14.5 -15t40.5 -33t64 -42.5t84 -33.5t103 -15q111 0 195.5 61.5t84.5 172.5q0 113 -81.5 177t-200.5 64q-59 0 -117 -14t-86 -28l-29 -13l-139 51l67 688h738v-223h-516l-23 -221l-10 -64h4q70 29 158 29q225 0 361 -121.5t136 -312.5
q0 -212 -147 -339.5t-375 -127.5q-83 0 -159.5 18.5t-126.5 45t-88.5 53t-56.5 45.5z" />
    <glyph glyph-name="six.t_osf" horiz-adv-x="1196" 
d="M88 610q0 111 24.5 220t77.5 210.5t128 178.5t184.5 123.5t238.5 46.5q82 0 156 -14.5t107 -28.5l34 -15l-75 -207q-94 43 -205 43q-80 0 -148 -32.5t-114.5 -87t-76.5 -120.5t-44 -139h4q37 45 115.5 73t158.5 28q206 0 332.5 -131t126.5 -322q0 -193 -131.5 -327
t-339.5 -134q-115 0 -214.5 42t-175.5 120.5t-119.5 200.5t-43.5 272zM354 535q0 -130 82.5 -234t202.5 -104q98 0 155.5 65.5t57.5 171.5q0 108 -68.5 179t-191.5 71q-98 0 -168 -43.5t-70 -105.5z" />
    <glyph glyph-name="seven.t_osf" horiz-adv-x="1196" 
d="M205 -238l518 1020q19 38 38 69.5t29 43.5l9 12v4q-22 -6 -94 -6h-592v221h974v-174l-608 -1190h-274z" />
    <glyph glyph-name="eight.t_osf" horiz-adv-x="1196" 
d="M88 395q0 51 17 101.5t40.5 87t55.5 71.5t54.5 54t45.5 36q-147 108 -147 269q0 73 28 138.5t82 118.5t142.5 84t199.5 31q200 0 330.5 -101.5t130.5 -274.5q0 -154 -149 -340q180 -111 180 -287q0 -80 -35 -153t-97.5 -130t-159.5 -91t-212 -34q-225 0 -365.5 121
t-140.5 299zM836 391q0 25 -9 47t-30.5 42t-42 35t-58 34t-63 30.5t-73.5 32t-73 31.5q-141 -101 -141 -227q0 -96 73.5 -158.5t174.5 -62.5q102 0 172 54.5t70 141.5zM403 1010q0 -35 15.5 -64.5t41.5 -52t64 -43t78 -38t88 -36.5q21 -8 31 -12q94 110 94 229
q0 79 -58.5 126.5t-152.5 47.5t-147.5 -44.5t-53.5 -112.5z" />
    <glyph glyph-name="nine.t_osf" horiz-adv-x="1196" 
d="M236 2q93 -43 204 -43q80 0 148 32.5t114.5 87t76.5 119.5t44 138h-4q-37 -43 -115.5 -70.5t-158.5 -27.5q-138 0 -243.5 61.5t-160.5 163t-55 225.5q0 195 131 329t340 134q115 0 214.5 -42t175.5 -120.5t119.5 -201t43.5 -273.5q0 -111 -24.5 -220t-78 -209.5
t-128.5 -177.5t-184 -123t-238 -46q-82 0 -156.5 14t-108.5 28l-34 15zM606 442q98 0 167 43t69 105q0 131 -82 235.5t-201 104.5q-98 0 -156.5 -66t-58.5 -172q0 -107 69.5 -178.5t192.5 -71.5z" />
    <glyph glyph-name="dollar.osf" horiz-adv-x="1089" 
d="M88 172l127 193q6 -6 16.5 -17t44.5 -38t70 -48t88.5 -38t102.5 -17q86 0 136 33t50 94q0 36 -33 65.5t-85 53t-115.5 48.5t-127 57t-115.5 71.5t-85 101t-33 137.5q0 137 95.5 225.5t250.5 112.5v183h174v-181q59 -6 113.5 -21t90 -32.5t62.5 -34.5t39 -28l13 -11
l-101 -207q-5 4 -13.5 11.5t-37.5 26.5t-59.5 33t-76.5 26t-91 12q-189 0 -189 -127q0 -34 33 -62.5t85 -50.5t115.5 -45.5t127 -55t115.5 -71t85 -102t33 -139.5q0 -132 -95.5 -227.5t-256.5 -118.5v-191h-174v189q-68 8 -132.5 30.5t-107 49t-75.5 51.5t-48 42z" />
    <glyph glyph-name="cent.osf" horiz-adv-x="1132" 
d="M92 612q0 186 114 324t306 176v172h182v-162q62 -6 120 -24t97 -40.5t69 -44t44 -35.5l14 -15l-118 -191q-4 5 -12 13.5t-34.5 29.5t-55 37t-72 29.5t-87.5 13.5q-140 0 -223.5 -81t-83.5 -198q0 -121 83 -202.5t224 -81.5q44 0 87 12.5t73 30t53.5 35.5t35.5 30l12 13
l118 -189q-5 -6 -15 -15.5t-43 -35t-70 -46t-96 -40t-120 -25.5v-159h-182v170q-193 36 -306.5 174t-113.5 325z" />
    <glyph glyph-name="sterling.osf" horiz-adv-x="1271" 
d="M106 0v221h121v264h-90v172h90v144q0 179 138.5 296t343.5 117q63 0 124.5 -12t104 -29t76.5 -34t50 -29l17 -12l-116 -191q-13 9 -36.5 21.5t-89.5 33.5t-124 21q-97 0 -161.5 -53.5t-64.5 -132.5v-140h414v-172h-414v-264h637v-221h-1020z" />
    <glyph glyph-name="yen.osf" horiz-adv-x="1310" 
d="M186 588v155h168l-264 447h299l174 -324q21 -38 43 -88t34 -81l11 -31h4q41 112 88 200l172 324h299l-264 -447h178v-155h-270l-74 -129v-8h344v-156h-344v-295h-264v295h-334v156h334v8l-76 129h-258z" />
    <glyph glyph-name="florin.osf" horiz-adv-x="1169" 
d="M41 -25q90 -12 137 -12q34 0 64.5 7t65.5 25t58.5 58t28.5 99l39 440h-153v207h172l18 202q7 82 33.5 147t66.5 106t84.5 69t96.5 41.5t93.5 19t84.5 5.5q32 0 76 -4.5t72 -8.5l28 -4v-221q-111 14 -162 14q-26 0 -50 -3.5t-54 -15t-52.5 -31t-40 -55.5t-22.5 -83
l-16 -178h223v-207h-242l-39 -465q-6 -71 -27.5 -129.5t-51 -98t-69 -69t-78 -46.5t-83 -27.5t-79 -13.5t-70.5 -3q-30 0 -68 3.5t-61 6.5l-23 4v221z" />
    <glyph glyph-name="Euro.osf" horiz-adv-x="1226" 
d="M100 393v144h131q-4 40 -4 65q0 31 2 47h-129v144h156q28 88 80.5 162.5t129.5 133.5t185 92t236 33q51 0 102 -6t76 -12l25 -6l-58 -209q-69 20 -149 20q-129 0 -219.5 -56.5t-135.5 -151.5h465l-30 -144h-474q-2 -16 -2 -45q0 -10 5 -67h454l-28 -144h-379
q50 -92 139 -146t213 -54q44 0 88.5 7t66.5 14l23 7l43 -211q-96 -35 -225 -35q-241 0 -403 116.5t-224 301.5h-160z" />
    <glyph glyph-name="zero.numerator" 
d="M406 535q-92 0 -158 35.5t-104 101.5t-55 148t-17 186q0 103 17 184.5t55 147.5t104 101.5t158 35.5q331 0 331 -469q0 -471 -331 -471zM406 713q135 0 135 293q0 288 -135 288q-138 0 -138 -288q0 -293 138 -293z" />
    <glyph glyph-name="one.numerator" 
d="M137 555v170h189v424l4 57h-4q-8 -19 -31 -39l-64 -59l-114 123l231 223h172v-729h187v-170h-570z" />
    <glyph glyph-name="two.numerator" 
d="M98 555q-8 58 -8 84q0 72 23.5 132t61 101t82.5 75.5t90 62t82.5 53.5t61 57.5t23.5 67.5q0 47 -36 76.5t-91 29.5q-41 0 -81.5 -23.5t-60.5 -46.5l-20 -24l-127 113q4 7 11.5 17.5t35.5 38.5t59.5 49.5t84.5 39t110 17.5q129 0 220.5 -75.5t91.5 -203.5q0 -69 -29 -126
t-72.5 -93t-95.5 -70t-96.5 -58.5t-76.5 -56.5t-36 -67h418v-170h-625z" />
    <glyph glyph-name="three.numerator" 
d="M379 535q-58 0 -110.5 14t-86.5 34.5t-59.5 40.5t-36.5 34l-12 14l102 137q3 -4 8.5 -10.5t25 -23t41 -29t55 -23t69.5 -10.5q61 0 104 37t43 92t-47 85.5t-113 30.5h-71l-41 93l162 184q7 9 19.5 21t20.5 20l9 8v4q-41 -6 -72 -6h-264v172h573v-125l-202 -229
q101 -20 162 -87t61 -173q0 -124 -94 -214.5t-246 -90.5z" />
    <glyph glyph-name="four.numerator" 
d="M459 555v203h-418v131l387 565h221v-528h119v-168h-119v-203h-190zM240 926h219v225l6 113h-4q-24 -56 -53 -97l-168 -237v-4z" />
    <glyph glyph-name="five.numerator" 
d="M391 535q-56 0 -108.5 14t-87.5 34.5t-61.5 40.5t-39.5 34l-12 14l106 137q3 -4 8 -10.5t23.5 -23t39 -29t52.5 -23t66 -10.5q64 0 111 39t47 100t-47 101t-115 40q-38 0 -74.5 -9.5t-54.5 -18.5l-17 -9l-104 39l45 459h502v-172h-344l-9 -96l-10 -51l4 -2q44 16 105 16
q138 0 226.5 -87.5t88.5 -211.5q0 -128 -93.5 -221.5t-246.5 -93.5z" />
    <glyph glyph-name="six.numerator" 
d="M432 535q-149 0 -250.5 112t-101.5 307q0 74 16 147t50 141t82 119.5t117.5 82.5t150.5 31q52 0 102 -12t74 -24l24 -12l-55 -165q-72 32 -135 32q-77 0 -131.5 -54.5t-73.5 -143.5h4q53 43 129 43q140 0 223.5 -83.5t83.5 -211.5q0 -132 -86 -220.5t-223 -88.5zM432 713
q53 0 84 38t31 95q0 63 -38.5 107t-105.5 44q-50 0 -87 -24.5t-37 -57.5q0 -80 44.5 -141t108.5 -61z" />
    <glyph glyph-name="seven.numerator" 
d="M104 555l359 649l49 78v4q-37 -4 -80 -4h-342v172h643v-133l-416 -766h-213z" />
    <glyph glyph-name="eight.numerator" 
d="M68 815q0 123 139 225q-96 72 -96 185q0 118 88 184t211 66q79 0 147 -27.5t113 -86.5t45 -138q0 -50 -27 -105t-45.5 -77t-36.5 -40q127 -76 127 -202q0 -118 -96.5 -191t-230.5 -73q-87 0 -162 30t-125.5 95.5t-50.5 154.5zM539 809q0 16 -5.5 30.5t-18.5 27.5
t-24 22.5t-34.5 22t-37 19t-44 20.5t-43.5 20q-76 -71 -76 -146q0 -57 43.5 -91t103.5 -34q53 0 94.5 30t41.5 79zM297 1217q0 -27 12.5 -49t42.5 -41.5t52 -30t69 -31.5q59 74 59 145q0 45 -37 71t-85 26q-47 0 -80 -23t-33 -67z" />
    <glyph glyph-name="nine.numerator" 
d="M70 1165q0 132 85 221t222 89q151 0 252.5 -113t101.5 -309q0 -73 -16 -146t-50 -140t-82 -118.5t-118 -82.5t-152 -31q-52 0 -102 11.5t-74 23.5l-24 12l57 166q70 -33 133 -33q77 0 131.5 53.5t75.5 142.5h-4q-57 -43 -129 -43q-141 0 -224 84.5t-83 212.5zM262 1163
q0 -63 39 -108t105 -45q51 0 87.5 25t36.5 57q0 80 -44.5 141t-108.5 61q-54 0 -84.5 -37.5t-30.5 -93.5z" />
    <glyph glyph-name="zero.denominator" 
d="M406 -20q-92 0 -158 35.5t-104 101.5t-55 148t-17 186q0 103 17 184.5t55 147.5t104 101.5t158 35.5q331 0 331 -469q0 -471 -331 -471zM406 158q135 0 135 293q0 288 -135 288q-138 0 -138 -288q0 -293 138 -293z" />
    <glyph glyph-name="one.denominator" 
d="M137 0v170h189v424l4 57h-4q-8 -19 -31 -39l-64 -59l-114 123l231 223h172v-729h187v-170h-570z" />
    <glyph glyph-name="two.denominator" 
d="M98 0q-8 58 -8 84q0 72 23.5 132t61 101t82.5 75.5t90 62t82.5 53.5t61 57.5t23.5 67.5q0 47 -36 76.5t-91 29.5q-41 0 -81.5 -23.5t-60.5 -47.5l-20 -23l-127 113q4 7 11.5 17.5t35.5 38.5t59.5 49.5t84.5 39t110 17.5q129 0 220.5 -75.5t91.5 -203.5q0 -69 -29 -126
t-72.5 -93t-95.5 -70t-96.5 -58.5t-76.5 -56.5t-36 -67h418v-170h-625z" />
    <glyph glyph-name="three.denominator" 
d="M379 -20q-58 0 -110.5 14t-86.5 34t-59.5 40.5t-36.5 34.5l-12 14l102 137q3 -4 8.5 -10.5t25 -23t41 -29t55 -23t69.5 -10.5q61 0 104 37t43 92t-47 85.5t-113 30.5h-71l-41 93l162 184q7 9 19.5 21t20.5 20l9 8v4q-41 -6 -72 -6h-264v172h573v-125l-202 -229
q101 -20 162 -87t61 -173q0 -124 -94 -214.5t-246 -90.5z" />
    <glyph glyph-name="four.denominator" 
d="M459 0v203h-418v131l387 565h221v-528h119v-168h-119v-203h-190zM240 371h219v225l6 113h-4q-24 -56 -53 -97l-168 -237v-4z" />
    <glyph glyph-name="five.denominator" 
d="M391 -20q-56 0 -108.5 14t-87.5 34t-61.5 40.5t-39.5 34.5l-12 14l106 137q3 -4 8 -10.5t23.5 -23t39 -29t52.5 -23t66 -10.5q64 0 111 39t47 100t-47 101t-115 40q-38 0 -74.5 -9t-54.5 -19l-17 -9l-104 39l45 459h502v-172h-344l-9 -96l-10 -51l4 -2q44 16 105 16
q138 0 226.5 -87.5t88.5 -211.5q0 -128 -93.5 -221.5t-246.5 -93.5z" />
    <glyph glyph-name="six.denominator" 
d="M432 -20q-149 0 -250.5 112t-101.5 307q0 74 16 147t50 141t82 119.5t117.5 82.5t150.5 31q52 0 102 -12t74 -24l24 -12l-55 -165q-72 32 -135 32q-77 0 -131.5 -54.5t-73.5 -143.5h4q53 43 129 43q140 0 223.5 -84t83.5 -211q0 -132 -86 -220.5t-223 -88.5zM432 158
q53 0 84 38t31 95q0 63 -38.5 107t-105.5 44q-50 0 -87 -24.5t-37 -57.5q0 -80 44.5 -141t108.5 -61z" />
    <glyph glyph-name="seven.denominator" 
d="M104 0l359 649l49 78v4q-37 -4 -80 -4h-342v172h643v-133l-416 -766h-213z" />
    <glyph glyph-name="eight.denominator" 
d="M68 260q0 123 139 225q-96 72 -96 185q0 118 88 184t211 66q79 0 147 -27.5t113 -86.5t45 -138q0 -50 -27 -105t-45.5 -77t-36.5 -40q127 -76 127 -202q0 -118 -96.5 -191t-230.5 -73q-87 0 -162 30t-125.5 95.5t-50.5 154.5zM539 254q0 16 -5.5 30.5t-18.5 27.5
t-24 22.5t-34.5 22t-37 19t-44 20.5t-43.5 20q-76 -71 -76 -146q0 -57 43.5 -91t103.5 -34q53 0 94.5 30t41.5 79zM297 662q0 -27 12.5 -49t42.5 -41.5t52 -30t69 -31.5q59 74 59 145q0 45 -37 71t-85 26q-47 0 -80 -23t-33 -67z" />
    <glyph glyph-name="nine.denominator" 
d="M70 610q0 132 85 221t222 89q151 0 252.5 -113t101.5 -309q0 -73 -16 -146t-50 -140t-82 -118.5t-118 -82.5t-152 -31q-52 0 -102 12t-74 24l-24 11l57 166q70 -33 133 -33q77 0 131.5 53.5t75.5 142.5h-4q-57 -43 -129 -43q-141 0 -224 84.5t-83 212.5zM262 608
q0 -63 39 -108t105 -45q51 0 87.5 25t36.5 57q0 80 -44.5 141t-108.5 61q-54 0 -84.5 -37.5t-30.5 -93.5z" />
    </font>
</defs>
</svg>
